<?xml version="1.0" standalone="no"?>
<!DOCTYPE svg PUBLIC "-//W3C//DTD SVG 1.1//EN" "http://www.w3.org/Graphics/SVG/1.1/DTD/svg11.dtd" >
<svg xmlns="http://www.w3.org/2000/svg">
<metadata>Generated by IcoMoon</metadata>
<defs>
<font id="icomoon" horiz-adv-x="1024">
<font-face units-per-em="1024" ascent="960" descent="-64" />
<missing-glyph horiz-adv-x="1024" />
<glyph unicode="&#x20;" horiz-adv-x="512" d="" />
<glyph unicode="&#xe900;" glyph-name="ic_accesorios" horiz-adv-x="710" d="M264.258 171.974c31.174-24.981 49.548-62.968 49.548-103.019 0-68.542-53.471-126.348-121.6-131.716-3.097-0.206-6.813-0.413-10.529-0.413s-7.432 0.206-10.942 0.619c-67.716 5.368-121.187 63.174-121.187 131.51 0 40.052 18.374 78.039 49.548 103.019v480.826c-51.2 29.523-82.581 83.406-82.581 142.865 0 69.781 44.181 132.542 110.039 155.665l22.090 7.845v-146.994h66.065v146.994l22.090-7.845c65.858-23.123 110.039-85.884 110.039-155.665 0-59.458-31.381-113.342-82.581-142.865v-480.826zM181.677 111.484c-23.329 0-42.529-19.2-42.529-42.529s19.2-42.529 42.529-42.529 42.529 19.2 42.529 42.529c0 23.329-19.2 42.529-42.529 42.529zM545.032 877.419h33.032v-329.91h-33.032v329.91zM644.129 547.097v308.645c0 57.394-51.819 104.258-115.613 104.258s-115.613-46.865-115.613-104.258v-308.645c-36.335 0-66.065-29.729-66.065-66.065s29.729-66.065 66.065-66.065h66.065v-312.774l22.090-166.194h55.123l21.884 166.194v312.774h66.065c36.335 0 66.065 29.729 66.065 66.065s-29.729 66.065-66.065 66.065zM478.968 102.194l22.090-166.194-56.981 131.303 34.89 34.89zM556.181-64l21.884 166.194 35.097-34.89-56.981-131.303z" />
<glyph unicode="&#xe901;" glyph-name="ic_caracteristicas" horiz-adv-x="916" d="M9.367 953.229l6.771 6.771h777.326l5.309-4.175c11.43-8.993 11.231-6.915 11.231-116.257 0-93.64-0.253-101.102-3.656-107.443-9.262-17.275-32.671-18.516-44.186-2.345-4.058 5.696-4.16 7.954-4.157 92.029v86.19h-704v-920h704v152.192c0 150.909 0.033 152.241 4.157 158.031 11.515 16.172 34.924 14.93 44.186-2.345 3.456-6.444 3.656-15.885 3.656-173.445 0-181.463 0.52-173.012-11.231-182.257l-5.309-4.175h-777.326l-6.771 6.771c-9.887 9.884-9.362-18.34-9.362 505.229s-0.525 495.345 9.362 505.229zM303.004 822.897c16.026 8.223 35.889-1.347 37.148-17.897 1.29-16.983 3.274-14.415-60.649-78.569-83.3-83.602-75.31-81.539-124.749-32.205-39.293 39.212-42.739 46.508-30.359 64.225 11.487 16.433 27.464 12.268 54.118-14.113l21.509-21.289 48.492 48.384c26.67 26.611 51.19 49.769 54.49 51.464zM765.005 678.2c-13.138-8.284-356.57-354.982-357.801-361.201-5.156-26.068-21.199-131.244-21.199-138.972 0-12.042 6.656-20.974 17.884-23.997 6.692-1.8 127.47 15.626 147.116 21.228 7.877 2.245 360.886 357.010 363.003 364.805 3.95 14.554 2.204 16.827-62.533 81.436l-60.621 60.5-9.925-0.008c-6.277-0.005-12.129-1.398-15.923-3.791zM816.527 582.477l35.482-35.523-60.009-59.909-71.992 71.91 29.473 29.522c16.21 16.238 29.944 29.522 30.52 29.522 0.573 0 17.011-15.985 36.526-35.523zM306.004 526.538c8.2 1.505 9.226 1.516 15.869 0.187 13.652-2.729 22.131-18.314 18.035-33.144-1.339-4.849-18.291-23.025-64.435-69.082l-62.615-62.5h-23.588l-33.684 33.475c-40.76 40.507-45.22 50.58-29.394 66.409 14.011 14.008 26.729 10.112 53.243-16.312l20.518-20.447 50.524 50.248c32.282 32.102 52.332 50.578 55.526 51.167zM718.517 484.488l35.474-35.515-223.99-223.972-43-7.165c-37.509-6.249-42.993-6.761-42.97-3.999 0.018 1.738 3.041 21.033 6.72 42.877l6.692 39.711 111.775 111.788c61.473 61.484 112.236 111.788 112.801 111.788 0.563 0 16.988-15.982 36.498-35.512zM306.004 227.791c14.556 5.693 29.75-2.002 33.823-17.132 4.173-15.498 3.085-16.919-64.289-83.955-80.364-79.956-71.311-77.847-121.052-28.209-39.672 39.588-44.065 49.925-27.743 65.257 14.656 13.77 26.616 10.015 53.235-16.714l20.977-21.061 50.025 49.93c27.512 27.461 52.275 50.808 55.025 51.884z" />
<glyph unicode="&#xe902;" glyph-name="ic_format_mirrored" d="M896 832h-768v-85.333h768v85.333zM896 277.333v341.333l-170.667-170.667 170.667-170.667zM554.667 661.333h-426.667v-85.333h426.667v85.333zM896 64v85.333h-768v-85.333h768zM554.667 320h-426.667v-85.333h426.667v85.333zM554.667 490.667h-426.667v-85.333h426.667v85.333z" />
<glyph unicode="&#xe903;" glyph-name="ic_garantia" d="M646.996 574.090c-6.609 6.606-15.821 10.396-25.276 10.396-9.589 0-18.561-3.689-25.273-10.396l-125.156-125.153-43.219 43.225c-6.749 6.729-15.718 10.436-25.25 10.436-9.541 0-18.515-3.712-25.273-10.464-6.752-6.755-10.473-15.735-10.473-25.282 0-9.555 3.724-18.535 10.47-25.279l68.492-68.498c6.695-6.681 15.664-10.359 25.247-10.359 0.003 0 0.003 0 0.003 0 9.589 0 18.555 3.681 25.282 10.384l150.432 150.429c13.934 13.934 13.936 36.61-0.006 50.561zM929.354 748.963c-0.566 6.512-4.51 12.249-10.387 15.106l-398.834 194.058c-5.134 2.5-11.134 2.5-16.267 0l-398.831-194.055c-5.877-2.86-9.824-8.594-10.387-15.106-0.509-5.851-11.946-145.284 32.114-315.584 25.954-100.318 65.918-190.311 118.781-267.48 66.302-96.783 153.069-173.432 257.9-227.813 2.683-1.393 5.623-2.088 8.56-2.088s5.877 0.695 8.56 2.088c104.828 54.382 191.601 131.028 257.903 227.813 52.863 77.169 92.828 167.163 118.779 267.48 44.057 170.3 32.62 309.73 32.111 315.582zM511.999 240.153c-130.378 0-236.447 106.069-236.447 236.447s106.069 236.447 236.447 236.447 236.447-106.069 236.447-236.447-106.069-236.447-236.447-236.447z" />
<glyph unicode="&#xe904;" glyph-name="ic_listado_agregar" d="M787.692 711.877h-129.969c0 59.077-47.262 106.338-106.338 106.338-51.2 0-98.462-39.385-102.4-90.585-11.815 7.877-15.754 7.877-23.631 7.877h-94.523c0 15.754 0 70.892 0 94.523s-19.692 35.446-35.446 35.446c-27.569 0-39.385 0-66.954 0-7.877 0-35.446-3.938-35.446-35.446 0-23.631 0-82.708 0-94.523-31.508 0-63.015 0-98.462 0-15.754-3.938-31.508-15.754-31.508-39.385 0-19.692 0-59.077 0-70.892 0-27.569 23.631-35.446 31.508-35.446 19.692 0 63.015 0 98.462 0 0-19.692 0-74.831 0-94.523 0-27.569 23.631-35.446 35.446-35.446 3.938 0 7.877 0 7.877 0v-405.662c0-43.323 35.446-78.769 78.769-78.769h472.615c43.323 0 78.769 35.446 78.769 78.769v578.954c0 43.323-35.446 78.769-78.769 78.769zM393.846 121.108c-23.631 0-39.385 15.754-39.385 39.385s15.754 39.385 39.385 39.385 39.385-15.754 39.385-39.385-15.754-39.385-39.385-39.385zM393.846 278.646c-23.631 0-39.385 15.754-39.385 39.385s15.754 39.385 39.385 39.385 39.385-15.754 39.385-39.385-15.754-39.385-39.385-39.385zM393.846 436.185c-23.631 0-39.385 15.754-39.385 39.385s15.754 39.385 39.385 39.385 39.385-15.754 39.385-39.385c0-23.631-15.754-39.385-39.385-39.385zM760.123 144.738c0-7.877-3.938-11.815-11.815-11.815h-236.308c-7.877 0-11.815 3.938-11.815 11.815v27.569c0 7.877 3.938 11.815 11.815 11.815h236.308c7.877 0 11.815-3.938 11.815-11.815v-27.569zM760.123 302.277c0-7.877-3.938-11.815-11.815-11.815h-236.308c-7.877 0-11.815 3.938-11.815 11.815v27.569c0 7.877 3.938 11.815 11.815 11.815h236.308c7.877 0 11.815-3.938 11.815-11.815v-27.569zM760.123 459.815c0-7.877-3.938-11.815-11.815-11.815h-236.308c-7.877 0-11.815 3.938-11.815 11.815v27.569c0 7.877 3.938 11.815 11.815 11.815h236.308c7.877 0 11.815-3.938 11.815-11.815v-27.569zM236.308 637.046c0 0-90.585 0-90.585 0-7.877-3.938-11.815 3.938-11.815 7.877v27.569c0 7.877 3.938 11.815 11.815 11.815 0 0 90.585 0 94.523 0 0 0 0 90.585 0 90.585 0 7.877 3.938 11.815 11.815 11.815h23.631c7.877 0 11.815-3.938 11.815-11.815 0 0 0-90.585 0-94.523 0 0 94.523 0 94.523 0 7.877 3.938 11.815 0 11.815-7.877v-27.569c0-7.877-3.938-11.815-11.815-11.815 0 0-90.585 0-94.523 0 0 0 0-94.523 0-94.523 0-7.877-3.938-11.815-11.815-11.815h-27.569c-7.877 0-11.815 3.938-11.815 11.815 0 3.938 0 94.523 0 98.462z" />
<glyph unicode="&#xe905;" glyph-name="ic_logo_cat" horiz-adv-x="3172" d="M32.26 181.593h101.984v-245.593h-101.984v245.593zM134.244 247.154l192.52-311.154h78.049l192.52 297.626v-297.626h96.78v414.179h-133.203l-177.951-286.179h-33.301l-182.114 286.179h-135.285v-101.984h101.984zM782.569-64h98.862v414.179h-98.862v-414.179zM965.724 350.179v-103.024h538.016c42.667 0 42.667-65.561 0-65.561h-538.016v-245.593h106.146v164.423h297.626l142.569-164.423h114.472l-140.488 166.504c194.602 0 194.602 247.675 0 247.675h-520.325zM2448.65-64h119.675v249.756h-119.675v-249.756zM2568.325 228.423l429.789-293.463h134.244v415.22h-115.512v-289.301h-30.179l-418.341 289.301h-119.675v-119.675l119.675-2.081zM2381.008 256.52c-12.488 55.154-65.561 82.211-117.593 92.618h-451.642c-66.602-6.244-113.431-45.789-112.39-119.675v-205.008c17.691-54.114 56.195-82.211 112.39-89.496h464.13c54.114 4.163 85.333 34.341 105.106 89.496zM1873.171 244.033h333.008c84.293-18.732 97.821-172.748 0-194.602h-333.008c-84.293 11.447-93.659 180.033 0 194.602zM1085.398 940.228l-70.764-81.171-555.707-5.203c-236.228-22.894-229.984-369.431 22.894-378.797l455.805 1.041c35.382 6.244 64.52 18.732 94.699 45.789l119.675 163.382 556.748 4.163-65.561-91.577-266.407 1.041-90.537-159.22c-20.813-30.179-61.398-57.236-121.756-59.317l-833.561 4.163c-411.057 14.569-475.577 539.057 14.569 550.504l739.902 5.203zM1197.789 750.829h290.341l46.829 78.049c34.341 56.195 83.252 53.073 114.472 0l254.959-378.797c37.463-49.951 67.642-68.683 136.325-68.683l762.797 3.122c16.65 1.041 27.057 7.285 27.057 20.813l-1.041 459.967h280.976l61.398 84.293-832.52 1.041-71.805-91.577 327.805 1.041 2.081-373.593-429.789-1.041-251.837 361.106c-56.195 68.683-70.764 98.862-156.098 106.146-120.715 13.528-243.512 12.488-367.35-3.122-30.179-6.244-65.561-15.61-90.537-46.829l-104.065-151.935z" />
<glyph unicode="&#xe906;" glyph-name="ic_logo_grande_itegocrm" horiz-adv-x="3175" d="M234.562 601.222c0-3.153 3.153-5.044 6.936-3.783 68.099 26.483 121.064 95.842 121.064 175.291-0.631 103.409-81.34 187.271-180.966 187.271s-181.596-83.232-181.596-186.64c0-80.709 49.813-152.591 124.217-177.813 2.522-0.631 5.044 0.631 5.675 3.153 0 0.631 0 1.261 0 1.892v51.704c0 3.783-1.261 5.044-6.305 8.197-60.532 32.158-83.862 109.084-52.335 171.507s105.931 86.384 166.463 54.227 84.493-109.084 52.966-171.507c-11.35-22.7-29.005-40.985-50.443-52.966-4.414-2.522-5.675-5.044-5.675-8.197v-52.335zM146.916 705.892v-170.246c0-10.089 7.567-18.286 17.025-18.916h34.68c10.719 1.261 17.025 6.936 17.025 18.916v157.635c-2.522 18.916-11.35 29.635-29.005 31.527h-22.7c-11.35 0-17.025-6.305-17.025-18.916zM145.655 478.897v-394.719c-0.631-10.089 6.936-18.916 17.025-19.547h34.68c10.089 0.631 17.655 9.458 17.025 20.177 0 0 0 0 0 0v381.478c-2.522 18.916-11.35 29.635-29.005 31.527h-23.33c-10.089 0-16.394-6.305-16.394-18.916zM362.562 497.813h-36.571c-8.828 1.261-17.025-5.044-18.286-13.872 0-1.261 0-3.153 0-5.044v-25.222c-1.261-8.828 5.044-17.655 13.872-18.916 1.261 0 3.153 0 4.414 0h36.571v-283.744c0-44.138 34.68-88.906 85.754-88.276l73.773-0.631c9.458 0 17.655 7.567 17.655 17.655 0 0.631 0 1.261 0 1.892v31.527c-0.631 6.936-5.675 11.98-11.98 12.611h-61.163c-18.286 0-36.571 12.611-36.571 31.527v277.438h91.429c6.305 0.631 11.98 5.675 11.98 12.611v37.833c-0.631 6.936-5.675 11.98-11.98 12.611h-91.429v94.581c1.261 8.828-5.044 17.655-13.872 18.916-1.261 0-3.153 0-4.414 0h-30.266c-8.828 1.261-17.025-5.044-18.286-13.872 0-1.261 0-3.153 0-5.044v-94.581zM877.084 327.567h-218.798c5.044 79.448 81.97 129.261 151.33 107.192 40.355-23.33 67.468-54.857 67.468-107.192v0zM918.069 264.512h18.286c10.089 1.261 11.98 6.305 11.98 12.611l-1.261 54.227c0 88.276-59.271 148.808-125.478 167.724-273.655 72.512-330.404-421.833-68.729-436.335 88.906-6.305 151.33 25.852 175.921 49.813 9.458 9.458 19.547 26.483 12.611 42.877-8.197 17.655-26.483 17.025-44.138 8.828-17.025-11.98-35.31-22.069-54.857-29.635-29.005-10.719-60.532-10.719-95.842-1.892-44.768 13.241-68.729 37.202-79.448 69.36-8.197 20.177-12.611 41.616-11.98 63.054l262.936-0.631zM1375.842 56.433c-6.305-63.054-80.079-128.631-201.143-119.803-64.315 3.153-114.759 17.025-140.611 50.443-6.936 8.828-8.828 20.808-6.305 31.527 8.197 18.286 34.68 27.744 54.857 6.305 11.35-10.719 54.227-20.808 109.714-18.916 83.232 1.892 120.433 30.266 109.714 107.192-78.818-63.054-167.724-59.901-225.734-6.305-63.685 52.966-86.384 146.916-61.163 264.828 17.025 77.557 86.384 128 170.877 132.414 56.749 1.261 97.734-11.98 122.325-37.833 25.222 51.074 66.837 37.833 66.837 12.611v-422.463zM1180.374 441.064c-85.754-16.394-104.039-78.818-104.039-182.857 0.631-72.512 40.355-106.562 85.754-126.108 59.271-17.655 107.192 17.655 140.611 58.64 3.783 3.783 5.675 8.828 6.305 13.872v182.857c0 5.675-2.522 11.35-6.305 15.133-28.374 35.31-66.207 42.877-122.325 38.463v0zM1764.887 280.906c0-88.276-57.379-160.158-128-160.158s-128 71.882-128 160.158 57.379 160.158 128 160.158c70.621 0 128-71.251 128-160.158zM1636.887 502.857c-109.714 0-199.251-99.626-199.251-221.951s88.906-221.951 199.251-221.951 199.251 99.626 199.251 221.951-89.537 221.951-199.251 221.951zM2046.108 118.857c24.591-0.631 49.182 6.936 68.729 22.7 20.177 14.502 34.049 36.571 40.355 61.163l66.837 0.631c-3.783-27.113-15.133-52.966-32.158-74.404-17.655-22.7-40.355-40.355-65.576-52.335s-53.596-18.286-81.34-17.655c-32.158-0.631-63.054 9.458-89.537 28.374-25.222 18.916-44.138 45.399-54.227 76.296-11.98 35.31-15.764 72.512-11.98 109.714l1.892 20.177c4.414 39.094 16.394 76.926 35.941 110.975 17.655 31.527 42.877 58.010 73.773 76.296s65.576 27.113 100.887 25.222c44.768-1.261 80.079-16.394 107.192-45.399 26.483-29.005 40.355-66.207 40.355-110.975l-66.207 0.631c-0.631 28.374-8.197 51.074-23.33 68.099-15.764 17.655-37.833 27.744-60.532 27.744-35.31 1.261-69.36-13.872-92.059-41.616-24.591-28.374-39.724-68.729-46.030-120.433l-1.261-10.089c-1.261-17.655-1.892-35.31-0.631-52.335 1.892-30.897 10.719-55.488 25.852-73.773 15.133-18.916 35.941-28.374 63.054-29.005zM2544.236 430.345l-33.419 3.783c-45.399 0-81.34-21.438-107.823-63.685l-52.335-311.488h-71.251l73.773 438.227 68.729 0.631-10.719-51.074c30.266 40.985 65.576 60.532 106.562 59.271 11.35-0.631 22.7-2.522 34.049-6.305l-7.567-69.36zM2688 498.443l-8.828-49.182c32.788 37.833 80.079 58.64 129.261 56.749 23.961 0.631 47.921-6.305 68.729-18.916 18.286-11.98 32.158-30.266 38.463-51.704 39.724 47.921 87.015 71.882 141.241 70.621 42.246-1.261 73.773-15.764 93.951-44.138s27.744-66.207 22.7-114.128l-46.66-288.158h-70.621l46.66 289.419c1.892 12.611 1.892 25.852 0 38.463-5.044 36.571-28.374 55.488-69.99 56.118-25.852 0.631-50.443-8.197-70.621-25.222-20.808-17.025-35.31-40.985-40.985-67.468l-48.552-291.941h-71.882l47.291 288.788c3.153 30.266-1.261 52.966-13.241 69.36s-30.897 24.591-56.749 25.222c-44.138 1.261-79.448-19.547-105.931-62.424l-53.596-320.946h-71.251l73.773 438.857 66.837 0.631z" />
<glyph unicode="&#xe907;" glyph-name="ic_logo_grande_miron" horiz-adv-x="6068" d="M1525.539 942.095v-33.926h-94.239v-162.091h-41.465v162.091h-90.469v33.926h226.173zM1597.161 746.078h41.465v73.506h45.612l81.045-75.391h61.632l-90.469 75.391h45.235c0 0 28.46 0.188 28.46 33.738 0 33.361 0 53.528 0 53.528s0.754 35.434-36.753 35.434c-37.507 0-176.227 0-176.227 0v-196.205zM1764.906 859.353c0-10.555-9.424-9.612-9.424-9.612h-116.856v58.428c0 0 110.26 0 118.741 0s7.539-7.728 7.539-7.728 0-39.58 0-41.088zM1924.924 744.193l23.56 43.35h124.961l23.748-43.35h48.439l-111.767 196.017h-42.408l-111.013-196.017h44.481zM2056.293 821.469h-90.846l46.554 81.422 44.292-81.422zM2226.677 744.193h39.58v136.646l162.656-136.835h31.476v196.017h-41.465v-137.777l-163.599 137.777h-28.649v-195.828zM4218.699 744.193l23.56 43.35h124.961l23.748-43.35h48.439l-111.767 196.017h-42.408l-111.013-196.017h44.481zM4350.068 821.469h-90.846l46.554 81.422 44.292-81.422zM2602.125 798.475l-37.319-9.801 3.77-25.633c0 0 4.335-19.036 32.041-19.036s154.175 0 154.175 0 33.361-1.319 33.361 32.607 0 53.905 0 53.905 0.188 32.23-49.381 32.23c-49.57 0-124.018 0-124.018 0v43.35h131.934v-22.24l39.58 10.555v11.497c0 0 1.131 33.926-33.926 33.926-35.245 0-132.877 0-140.604 0-15.267 0-34.68-1.319-34.68-25.256s0-59.371 0-59.371 1.696-28.46 28.46-28.46c26.952 0 141.358 0 141.358 0s3.581 0 3.581-3.581 0-45.423 0-45.423h-147.201l-1.131 20.733zM2899.543 744.193h43.35v75.391h84.815v33.926h-86.7v54.659h156.437v32.041h-197.902v-196.017zM3165.297 911.373c0 0 0-114.406 0-138.343 0-17.905 22.052-28.837 37.696-28.837 15.455 0 144.751 0 173.211 0 25.633 0 30.345 15.455 30.345 25.633 0 10.366 0 121.191 0 143.997 0 18.094-18.282 26.387-34.868 26.387-8.482 0-168.688 0-168.688 0-36.376 0-37.696-28.837-37.696-28.837zM3214.301 906.284c2.45 0 144.186 0 146.636 0s3.958-2.262 3.958-3.958 0-115.914 0-118.553-2.639-5.654-5.654-5.654-143.055 0-145.128 0-3.77 1.319-3.77 3.77c0 2.45 0 117.987 0 119.683s1.508 4.712 3.958 4.712zM3523.404 744.193h41.465v73.506h45.612l81.045-75.391h61.632l-90.469 75.391h45.235c0 0 28.46 0.188 28.46 33.738 0 33.361 0 53.528 0 53.528s0.754 35.434-36.753 35.434-176.227 0-176.227 0v-196.205zM3691.15 857.468c0-10.555-9.424-9.612-9.424-9.612h-116.856v58.428c0 0 110.26 0 118.741 0s7.539-7.728 7.539-7.728 0-22.052 0-35.245c0-2.262 0-4.335 0-5.843zM3840.047 744.193h35.811v137.4l88.208-112.898h8.482l85.946 112.898v-137.4h41.465v196.017h-35.622l-94.427-120.249-93.297 120.249h-36.753v-196.017zM4218.699 744.193l23.56 43.35h124.961l23.748-43.35h48.439l-111.767 196.017h-42.408l-111.013-196.017h44.481zM4350.068 821.469h-90.846l46.554 81.422 44.292-81.422zM4520.452 940.21v-196.017c0 0 85.38 0 117.422 0 33.549 0 101.967 4.712 118.553 74.637 0 0 1.885 24.691 0 40.334-1.508 23.748-20.356 84.061-117.61 81.045h-118.364zM4645.224 908.169c71.245 0 69.171-51.643 69.171-51.643v-20.921c0-57.297-66.533-55.601-66.533-55.601h-84.25v128.165c0.188 0 10.366 0 81.611 0zM4854.058 913.258c0 0 0-114.406 0-138.343 0-17.905 22.052-28.837 37.696-28.837 15.455 0 144.751 0 173.211 0 25.633 0 30.345 15.455 30.345 25.633 0 10.366 0 121.191 0 143.997 0 18.094-18.282 26.387-34.868 26.387-8.482 0-168.688 0-168.688 0-36.376 0-37.696-28.837-37.696-28.837zM4903.062 908.169c2.45 0 144.186 0 146.636 0s3.958-2.262 3.958-3.958 0-115.914 0-118.553-2.639-5.654-5.654-5.654c-3.016 0-143.055 0-145.128 0s-3.77 1.319-3.77 3.77c0 2.45 0 117.987 0 119.683s1.508 4.712 3.958 4.712zM5210.281 746.078h41.465v75.391h45.612l81.045-75.391h61.632l-90.469 75.391h45.235c0 0 28.46 0.188 28.46 33.738 0 33.361 0 51.643 0 51.643s0.754 35.434-36.753 35.434c-37.507 0-176.227 0-176.227 0v-196.205zM5379.911 861.238c0-10.555-9.424-9.612-9.424-9.612h-116.856v58.428c0 0 110.26 0 118.741 0s7.539-7.728 7.539-7.728 0-22.052 0-35.245c0-2.262 0-4.335 0-5.843zM5532.578 942.095v-196.017h203.556v33.926h-162.091v50.889h92.354v32.041h-92.354v45.235h162.091v33.926h-203.556zM5860.906 800.359l-37.319-9.801 3.77-25.633c0 0 4.335-19.036 32.041-19.036s154.175 0 154.175 0 33.361-1.319 33.361 32.607 0 53.905 0 53.905 0.188 32.23-49.381 32.23-124.018 0-124.018 0v43.35h131.934v-22.24l39.58 10.555v11.497c0 0 1.131 33.926-33.926 33.926s-132.877 0-140.604 0c-15.267 0-34.68-1.319-34.68-25.821s0-60.313 0-60.313 1.696-29.026 28.46-29.026 141.358 0 141.358 0 3.581 0 3.581-3.581 0-43.538 0-43.538h-147.201l-1.131 20.921zM1298.612 633.933h132.311l323.805-423.887 327.386 423.887h128.542v-698.31h-147.201v501.728l-297.606-414.274h-33.172l-303.449 414.274v-501.728h-130.615v698.31zM2657.914-64h136.458v575.423h-136.458v-575.423zM3218.824-61.173h120.626v218.257h134.95l239.555-221.273h182.070l-267.45 221.273h133.631c0 0 84.061 0.754 84.061 98.762s0 152.102 0 152.102 2.073 103.474-108.186 103.474c-110.448 0-519.445 0-519.445 0v-572.596zM3714.709 272.433c0-30.533-28.083-27.706-28.083-27.706h-346.799v168.688c0 0 327.009 0.188 352.265 0.188 25.445 0 22.429-22.24 22.429-22.24s0-63.894 0-101.778c0.188-6.597 0.188-12.44 0.188-17.151zM4233.023 426.419c0 0 0-335.491 0-405.981 0-52.585 66.91-84.25 113.841-84.25s437.457 0 524.157 0c77.841 0 91.6 45.046 91.6 75.391s0 355.658 0 422.567c0 52.962-55.412 77.087-105.548 77.087-25.445 0-510.209 0-510.209 0-109.694 0-113.841-84.815-113.841-84.815zM4380.79 413.414c7.728 0 438.588 0 446.127 0s12.251-6.597 12.251-11.874c0-5.277 0-342.276 0-350.003s-8.105-16.586-16.963-16.586c-9.047 0-435.007 0-441.415 0s-11.497 3.958-11.497 11.12c0 7.351 0 348.119 0 353.584s3.77 13.759 11.497 13.759zM5360.309-64h117.987v416.913l494.943-417.101h95.558v597.852h-124.207v-420.117l-497.204 420.117h-87.077v-597.663zM277.439 724.214c55.412 131.746 207.891 227.304 373.563 220.708 161.149-12.251 303.449-103.663 327.386-268.392 9.235-88.208 13.759-175.284 13.947-261.607-2.639 29.403-36.376 270.466-308.727 307.219 0.188 0.188-313.439 2.073-406.17 2.073zM223.158 651.273c36.753 272.35 277.816 305.9 307.219 308.727-86.134-0.377-173.4-4.712-261.607-13.947-164.73-24.125-256.141-166.426-268.392-327.574-6.597-165.672 88.962-317.962 220.896-373.563-0.188 92.92 1.885 406.358 1.885 406.358zM769.366 245.292c-36.753-272.35-277.816-305.9-307.219-308.727 86.134 0.377 173.4 4.712 261.607 13.947 164.73 23.937 256.141 166.426 268.392 327.386 6.597 165.672-88.962 317.962-220.896 373.563 0-92.731-1.885-406.17-1.885-406.17zM312.119 173.105c-272.35 36.753-305.9 277.816-308.727 307.219 0.377-86.134 4.712-173.4 13.947-261.607 24.125-164.73 166.426-256.141 327.574-268.392 165.672-6.597 317.962 88.962 373.563 220.896-92.92 0-406.358 1.885-406.358 1.885zM280.078 294.862h62.386v237.105l145.505-197.902h14.324l144.562 197.902v-238.047h71.622v336.056h-65.213l-152.479-201.86-157.567 201.86h-63.14z" />
<glyph unicode="&#xe908;" glyph-name="ic_logo_itego" horiz-adv-x="863" d="M559.197 131.949c0.512-7.163 6.651-11.511 15.604-8.953 162.694 61.65 288.296 221.018 288.296 405.456-0.256 238.413-193.391 431.548-431.548 431.548s-431.548-193.135-431.548-431.548c0-191.089 124.323-353.271 296.737-410.060 8.442-2.814 14.837 4.349 14.581 11.256l0.256 119.462c0 8.953-3.581 12.023-14.581 19.186-93.882 48.859-158.857 147.090-158.857 260.157 0 162.182 131.23 293.412 293.412 293.412s293.412-131.485 293.412-293.412c0-111.021-61.65-207.46-152.462-257.343-11-6.395-13.302-11.256-13.302-18.674v-120.486zM350.201 372.92c0 29.162 13.814 43.743 41.185 43.743h54.999c41.185-4.093 63.44-29.162 68.812-72.905v-364.015c-1.023-27.116-15.604-40.929-41.185-43.743h-82.626c-28.906 4.093-39.65 20.465-41.185 43.743v393.177z" />
<glyph unicode="&#xe909;" glyph-name="ic_logo_itegocrm" horiz-adv-x="863" d="M559.197 131.949c0.512-7.163 6.651-11.511 15.604-8.953 162.694 61.65 288.296 221.018 288.296 405.456-0.256 238.413-193.391 431.548-431.548 431.548s-431.548-193.135-431.548-431.548c0-191.089 124.323-353.271 296.737-410.060 8.442-2.814 14.837 4.349 14.581 11.256l0.256 119.462c0 8.953-3.581 12.023-14.581 19.186-93.882 48.859-158.857 147.090-158.857 260.157 0 162.182 131.23 293.412 293.412 293.412s293.412-131.485 293.412-293.412c0-111.021-61.65-207.46-152.462-257.343-11-6.395-13.302-11.256-13.302-18.674v-120.486zM350.201 372.92c0 29.162 13.814 43.743 41.185 43.743h54.999c41.185-4.093 63.44-29.162 68.812-72.905v-364.015c-1.023-27.116-15.604-40.929-41.185-43.743h-82.626c-28.906 4.093-39.65 20.465-41.185 43.743v393.177z" />
<glyph unicode="&#xe90a;" glyph-name="ic_logo_miron" horiz-adv-x="992" d="M277.439 724.214c55.412 131.746 207.891 227.304 373.563 220.708 161.149-12.251 303.449-103.663 327.386-268.392 9.235-88.208 13.759-175.284 13.947-261.607-2.639 29.403-36.376 270.466-308.727 307.219 0.188 0.188-313.439 2.073-406.17 2.073zM223.158 651.273c36.753 272.35 277.816 305.9 307.219 308.727-86.134-0.377-173.4-4.712-261.607-13.947-164.73-24.125-256.141-166.426-268.392-327.574-6.597-165.672 88.962-317.962 220.896-373.563-0.188 92.92 1.885 406.358 1.885 406.358zM769.366 245.292c-36.753-272.35-277.816-305.9-307.219-308.727 86.134 0.377 173.4 4.712 261.607 13.947 164.73 23.937 256.141 166.426 268.392 327.386 6.597 165.672-88.962 317.962-220.896 373.563 0-92.731-1.885-406.17-1.885-406.17zM312.119 173.105c-272.35 36.753-305.9 277.816-308.727 307.219 0.377-86.134 4.712-173.4 13.947-261.607 24.125-164.73 166.426-256.141 327.574-268.392 165.672-6.597 317.962 88.962 373.563 220.896-92.92 0-406.358 1.885-406.358 1.885zM280.078 294.862h62.575v237.105l145.316-197.902h14.513l144.374 197.902v-238.047h71.622v336.056h-65.025l-152.667-201.86-157.567 201.86h-63.14v-335.114z" />
<glyph unicode="&#xe90b;" glyph-name="ic_medios_pago" d="M984.904 770.604l-627.151 132.723c-26.534 5.614-52.833-11.505-58.447-38.039l-11.915-76.57 723.626-153.131 11.915 76.57c5.614 26.524-11.495 52.832-38.029 58.447zM721.17 619.349c-7.325 26.38-34.893 41.973-61.265 34.659l-119.056-33.051-280.668 59.399-30.867-145.846-192.861-53.529c-26.37-7.315-41.963-34.883-34.649-61.255l108.689-391.662c7.325-26.37 34.895-41.973 61.265-34.649l623.453 173.015c26.37 7.325 41.963 34.883 34.649 61.265l-18.656 67.236 69.922-14.783c26.534-5.624 52.833 11.495 58.447 38.029l44.238 209.046-251.862 53.297-10.777 38.829zM793.17 420.29l15.419 72.872c2.316 10.911 13.135 17.949 24.044 15.645l72.872-15.429c10.921-2.316 17.959-13.123 15.655-24.044l-15.419-72.872c-2.316-10.911-13.133-17.959-24.044-15.645l-72.872 15.419c-10.931 2.324-17.97 13.143-15.655 24.054zM47.302 441.896l623.431 173.005c0.8 0.216 1.598 0.318 2.378 0.318 3.514 0 7.715-2.306 8.943-6.721l5.143-18.522 16.115-58.067-641.155-177.923-21.258 76.58c-1.332 4.805 1.6 9.999 6.403 11.331zM790.762 216.857c0.82-2.972-0.040-5.43-0.912-6.967-0.86-1.536-2.52-3.546-5.491-4.364l-623.441-173.015c-0.788-0.216-1.598-0.328-2.378-0.328-3.514 0-7.715 2.316-8.943 6.731l-63.395 228.451 641.155 177.933 63.405-228.44zM261.655 201.224c-2.992 10.757-14.221 17.109-24.978 14.127l-72.81-20.212c-10.747-2.982-17.109-14.221-14.117-24.978l20.202-72.8c2.992-10.757 14.221-17.109 24.978-14.117l72.81 20.202c10.757 2.982 17.109 14.221 14.127 24.978l-20.212 72.8z" />
<glyph unicode="&#xe90c;" glyph-name="ic_select_item" horiz-adv-x="1342" d="M317.563 738.263c0 52.37-43.456 95.826-95.826 95.826s-95.826-43.456-95.826-95.826c0-52.37 43.456-95.826 95.826-95.826s95.826 42.342 95.826 95.826zM221.737 899.83c89.14 0 161.567-72.427 161.567-161.567s-72.427-161.567-161.567-161.567c-89.14 0-161.567 72.427-161.567 161.567s72.427 161.567 161.567 161.567zM221.737 381.702c-122.568 0-221.737-99.169-221.737-221.737s99.169-221.737 221.737-221.737 221.737 99.169 221.737 221.737-99.169 221.737-221.737 221.737zM221.737 960c-122.568 0-221.737-99.169-221.737-221.737s99.169-221.737 221.737-221.737 221.737 99.169 221.737 221.737-99.169 221.737-221.737 221.737zM384.418 159.965c0-90.255-72.427-162.681-162.681-162.681s-161.567 72.427-161.567 162.681 72.427 162.681 162.681 162.681 161.567-73.541 161.567-162.681zM577.184 958.886l764.379-490.272-275.221-76.884 236.222-352.104-150.424-102.511-238.45 353.219-174.938-225.079-161.567 893.632z" />
<glyph unicode="&#xe90d;" glyph-name="chart-alt, pie" horiz-adv-x="960" d="M465.056 338.496l-338.496 338.496c-168.736-194.752-168.736-482.24 0-676.992l338.496 338.496zM512 384v576c-156.992-9.76-298.496-69.76-412.704-163.264l412.704-412.736zM576.064 831.488v-473.984l-332.256-332.256c74.496-54.752 164.256-89.248 263.52-89.248 250.176 0 452.672 202.496 452.672 452.256 0 226.496-167.264 409.984-383.936 443.232z" />
<glyph unicode="&#xe90e;" glyph-name="line-chart" horiz-adv-x="1170" d="M1170.286 73.143v-73.143h-1170.286v877.714h73.143v-804.571h1097.143zM1097.143 786.286v-248.571c0-16-19.429-24.571-31.429-12.571l-69.143 69.143-361.714-361.714c-7.429-7.429-18.857-7.429-26.286 0l-133.143 133.143-237.714-237.714-109.714 109.714 334.286 334.286c7.429 7.429 18.857 7.429 26.286 0l133.143-133.143 265.143 265.143-69.143 69.143c-12 12-3.429 31.429 12.571 31.429h248.571c10.286 0 18.286-8 18.286-18.286z" />
<glyph unicode="&#xe90f;" glyph-name="stats, statistics, grow, increase, up" d="M191.936 800h-31.584v-736h640v30.816l-607.872 1.568-0.544 703.616zM256.352 160h160v348l-160-160v-188zM448.352 160h160v316l-64-64-96 96v-348zM640.352 160h160v485.984l-160-160v-325.984zM428.384 605.856l115.84-115.2 228.736 227.584 58.688-59.008-1.408 140.768-141.28-0.736 54.944-55.104-199.744-200.32-118.048 118.496-179.936-179.328 30.048-29.184 152.16 152.032z" />
<glyph unicode="&#xe910;" glyph-name="group, users" horiz-adv-x="1097" d="M338.857 438.857c-59.429-1.714-113.143-27.429-151.429-73.143h-76.571c-57.143 0-110.857 27.429-110.857 90.857 0 46.286-1.714 201.714 70.857 201.714 12 0 71.429-48.571 148.571-48.571 26.286 0 51.429 4.571 76 13.143-1.714-12.571-2.857-25.143-2.857-37.714 0-52 16.571-103.429 46.286-146.286zM950.857 74.857c0-92.571-61.143-148-152.571-148h-499.429c-91.429 0-152.571 55.429-152.571 148 0 129.143 30.286 327.429 197.714 327.429 19.429 0 90.286-79.429 204.571-79.429s185.143 79.429 204.571 79.429c167.429 0 197.714-198.286 197.714-327.429zM365.714 804.571c0-80.571-65.714-146.286-146.286-146.286s-146.286 65.714-146.286 146.286 65.714 146.286 146.286 146.286 146.286-65.714 146.286-146.286zM768 585.143c0-121.143-98.286-219.429-219.429-219.429s-219.429 98.286-219.429 219.429 98.286 219.429 219.429 219.429 219.429-98.286 219.429-219.429zM1097.143 456.571c0-63.429-53.714-90.857-110.857-90.857h-76.571c-38.286 45.714-92 71.429-151.429 73.143 29.714 42.857 46.286 94.286 46.286 146.286 0 12.571-1.143 25.143-2.857 37.714 24.571-8.571 49.714-13.143 76-13.143 77.143 0 136.571 48.571 148.571 48.571 72.571 0 70.857-155.429 70.857-201.714zM1024 804.571c0-80.571-65.714-146.286-146.286-146.286s-146.286 65.714-146.286 146.286 65.714 146.286 146.286 146.286 146.286-65.714 146.286-146.286z" />
<glyph unicode="&#xe911;" glyph-name="paperplane, send, flight, email" d="M1009.376 954.88c-5.312 3.424-11.36 5.12-17.376 5.12-6.176 0-12.384-1.76-17.76-5.376l-960-640c-9.888-6.56-15.328-18.112-14.048-29.952 1.216-11.808 8.896-22.016 19.936-26.368l250.368-100.192 117.728-206.016c5.632-9.888 16.096-16 27.424-16.128 0.128 0 0.224 0 0.352 0 11.232 0 21.664 5.952 27.424 15.552l66.464 110.816 310.24-124.064c3.808-1.536 7.808-2.272 11.872-2.272 5.44 0 10.816 1.376 15.68 4.128 8.448 4.736 14.24 13.056 15.872 22.624l160 960c2.080 12.576-3.488 25.184-14.176 32.128zM100.352 295.136l741.6 494.432-539.2-577.184c-2.848 1.696-5.376 3.936-8.512 5.184l-193.888 77.568zM326.048 189.888c-0.064 0.128-0.16 0.192-0.224 0.32l606.176 648.8-516.768-805.184-89.184 156.064zM806.944 12.512l-273.312 109.312c-6.496 2.56-13.248 3.424-19.936 3.808l420.864 652.416-127.616-765.536z" />
<glyph unicode="&#xe912;" glyph-name="users2" horiz-adv-x="1152" d="M768 189.388v52.78c70.498 39.728 128 138.772 128 237.832 0 159.058 0 288-192 288s-192-128.942-192-288c0-99.060 57.502-198.104 128-237.832v-52.78c-217.102-17.748-384-124.42-384-253.388h896c0 128.968-166.898 235.64-384 253.388zM327.196 164.672c55.31 36.15 124.080 63.636 199.788 80.414-15.054 17.784-28.708 37.622-40.492 59.020-30.414 55.234-46.492 116.058-46.492 175.894 0 86.042 0 167.31 30.6 233.762 29.706 64.504 83.128 104.496 159.222 119.488-16.914 76.48-61.94 126.75-181.822 126.75-192 0-192-128.942-192-288 0-99.060 57.502-198.104 128-237.832v-52.78c-217.102-17.748-384-124.42-384-253.388h279.006c14.518 12.91 30.596 25.172 48.19 36.672z" />
<glyph unicode="&#xe913;" glyph-name="user-group" d="M358.4 563.2c-113.108 0-204.8 91.692-204.8 204.8s91.692 204.8 204.8 204.8v0c113.108 0 204.8-91.692 204.8-204.8s-91.692-204.8-204.8-204.8v0zM358.4 512c110.080 0 215.040-20.48 312.32-55.808l-56.32-302.592h-64l-38.4-204.8h-307.2l-38.4 204.8h-64l-56.32 302.592c92.835 35.013 200.137 55.444 312.164 55.808h0.156zM783.872 503.296c67.584-9.216 132.608-24.576 194.56-47.104l-56.832-302.592h-64l-38.4-204.8h-202.752l18.944 102.4h64l84.48 452.096zM665.6 972.8c0.522 0.005 1.138 0.008 1.756 0.008 113.108 0 204.8-91.692 204.8-204.8s-91.692-204.8-204.8-204.8c-25.063 0-49.074 4.502-71.269 12.741l1.417-0.461c42.583 52.050 68.389 119.268 68.389 192.512s-25.805 140.462-68.82 193.056l0.431-0.544c22.016 7.168 44.032 12.288 68.096 12.288z" />
<glyph unicode="&#xe914;" glyph-name="group_add" d="M554 384.667c86 0 256-42 256-128v-86h-512v86c0 86 170 128 256 128zM838 376.667c86-14 186-54 186-120v-86h-128v86c0 50-22 88-58 120zM554 468.667c-70 0-128 58-128 128s58 128 128 128 128-58 128-128-58-128-128-128zM768 468.667c-14 0-26 2-38 6 24 34 38 76 38 122s-14 88-38 122c12 4 24 6 38 6 70 0 128-58 128-128s-58-128-128-128zM342 512.667v-86h-128v-128h-86v128h-128v86h128v128h86v-128h128z" />
<glyph unicode="&#xe915;" glyph-name="filter" horiz-adv-x="805" d="M801.714 782.286c5.714-13.714 2.857-29.714-8-40l-281.714-281.714v-424c0-14.857-9.143-28-22.286-33.714-4.571-1.714-9.714-2.857-14.286-2.857-9.714 0-18.857 3.429-25.714 10.857l-146.286 146.286c-6.857 6.857-10.857 16-10.857 25.714v277.714l-281.714 281.714c-10.857 10.286-13.714 26.286-8 40 5.714 13.143 18.857 22.286 33.714 22.286h731.429c14.857 0 28-9.143 33.714-22.286z" />
<glyph unicode="&#xe916;" glyph-name="dollar, bill, money, stack" horiz-adv-x="1216" d="M1152.064 223.68l1.824 546.848-993.6-0.608-0.032 62.72h1055.744v-608.992l-63.936 0.032zM1119.84 127.456l-63.904 0.064 1.824 546.848-993.6-0.64-0.032 62.72h1055.744v-608.992zM1025.696 63.36h-1025.696v576.96h1025.696v-576.96zM961.568 578.208h-897.472v-450.752h897.44v450.752zM865.44 175.52c0-5.664 1.408-10.944 3.232-16h-355.84c88.512 0 160.288 86.080 160.288 192.32s-71.776 192.32-160.288 192.32h355.808c-1.824-5.056-3.232-10.336-3.232-16.032 0-26.56 21.504-48.064 48.064-48.064 5.696 0 10.976 1.408 16.032 3.232v-262.88c-5.056 1.792-10.336 3.232-16.032 3.232-26.528-0.032-48.032-21.568-48.032-48.128zM801.312 418.592c-26.56 0-48.064-28.672-48.064-64.096s21.504-64.096 48.064-64.096 48.064 28.672 48.064 64.096-21.504 64.096-48.064 64.096zM579.936 467.392c0.48-0.928 0.864-2.176 1.184-3.712 0.352-1.536 0.576-3.488 0.672-5.824 0.16-2.336 0.224-5.248 0.224-8.736 0-3.872-0.096-7.168-0.288-9.824-0.224-2.688-0.576-4.896-0.992-6.624-0.512-1.76-1.152-3.040-1.984-3.808-0.864-0.8-2.048-1.216-3.52-1.216s-3.776 0.928-7.008 2.784c-3.232 1.888-7.168 3.872-11.808 6.048s-10.080 4.192-16.224 5.984-12.864 2.688-20.224 2.688c-5.76 0-10.752-0.672-15.008-2.080-4.288-1.408-7.872-3.328-10.72-5.792-2.88-2.464-5.024-5.44-6.4-8.864-1.408-3.456-2.112-7.136-2.112-10.976 0-5.76 1.568-10.72 4.704-14.944 3.136-4.192 7.328-7.936 12.64-11.2 5.28-3.296 11.264-6.336 17.92-9.216s13.472-5.92 20.416-9.088c6.944-3.232 13.76-6.848 20.448-10.944 6.688-4.064 12.64-8.928 17.824-14.592 5.216-5.696 9.44-12.352 12.64-20.032s4.8-16.704 4.8-27.136c0-13.6-2.56-25.568-7.616-35.808-5.056-10.272-11.936-18.88-20.64-25.76s-18.816-12.032-30.432-15.488c-1.472-0.448-3.072-0.64-4.576-0.992v-35.008h-31.52v30.88c-0.416 0-0.768-0.096-1.184-0.096-8.928 0-17.248 0.736-24.928 2.176-7.68 1.472-14.464 3.232-20.32 5.248-5.888 2.048-10.784 4.224-14.72 6.464-3.968 2.24-6.784 4.224-8.512 5.952s-2.976 4.224-3.712 7.488-1.12 8-1.12 14.144c0 4.128 0.128 7.616 0.416 10.4 0.256 2.816 0.704 5.088 1.312 6.848 0.608 1.728 1.408 2.976 2.4 3.712 0.992 0.704 2.176 1.088 3.488 1.088 1.888 0 4.512-1.088 7.936-3.328 3.392-2.176 7.776-4.64 13.12-7.296s11.712-5.088 19.136-7.296c7.392-2.208 16-3.328 25.728-3.328 6.4 0 12.16 0.768 17.216 2.304 5.088 1.536 9.376 3.712 12.928 6.496 3.52 2.816 6.208 6.304 8.096 10.432 1.888 4.16 2.816 8.768 2.816 13.856 0 5.888-1.632 10.944-4.8 15.136-3.2 4.224-7.36 7.936-12.512 11.232-5.152 3.264-10.976 6.336-17.504 9.184-6.56 2.88-13.28 5.92-20.224 9.12s-13.696 6.848-20.224 10.912c-6.528 4.064-12.384 8.928-17.504 14.624-5.12 5.664-9.312 12.384-12.512 20.096-3.2 7.744-4.8 17.024-4.8 27.84 0 12.416 2.304 23.328 6.912 32.704 4.608 9.408 10.816 17.216 18.624 23.424 7.808 6.176 17.024 10.848 27.616 13.92 5.44 1.568 11.072 2.72 16.864 3.488v33.12h31.52v-33.12c1.248-0.16 2.496-0.096 3.744-0.288 6.144-0.928 11.904-2.176 17.248-3.776 5.312-1.6 10.048-3.36 14.176-5.376 4.16-1.984 6.88-3.616 8.256-4.96 1.248-1.184 2.144-2.304 2.624-3.264zM352.576 351.84c0-106.208 71.744-192.32 160.256-192.32h-355.808c1.792 5.056 3.232 10.336 3.232 16 0 26.56-21.536 48.096-48.064 48.096-5.696 0-10.976-1.44-16.032-3.232v262.88c5.056-1.824 10.336-3.232 16.032-3.232 26.56 0 48.064 21.504 48.064 48.064 0 5.696-1.44 10.976-3.232 16.032h355.808c-88.512 0.032-160.256-86.080-160.256-192.288zM224.352 418.592c-26.56 0-48.064-28.672-48.064-64.096s21.536-64.096 48.064-64.096c26.56 0 48.064 28.672 48.064 64.096s-21.504 64.096-48.064 64.096z" />
<glyph unicode="" glyph-name="dollar, bill, money, stack" horiz-adv-x="1216" d="M1152.064 223.68l1.824 546.848-993.6-0.608-0.032 62.72h1055.744v-608.992l-63.936 0.032zM1119.84 127.456l-63.904 0.064 1.824 546.848-993.6-0.64-0.032 62.72h1055.744v-608.992zM1025.696 63.36h-1025.696v576.96h1025.696v-576.96zM961.568 578.208h-897.472v-450.752h897.44v450.752zM865.44 175.52c0-5.664 1.408-10.944 3.232-16h-355.84c88.512 0 160.288 86.080 160.288 192.32s-71.776 192.32-160.288 192.32h355.808c-1.824-5.056-3.232-10.336-3.232-16.032 0-26.56 21.504-48.064 48.064-48.064 5.696 0 10.976 1.408 16.032 3.232v-262.88c-5.056 1.792-10.336 3.232-16.032 3.232-26.528-0.032-48.032-21.568-48.032-48.128zM801.312 418.592c-26.56 0-48.064-28.672-48.064-64.096s21.504-64.096 48.064-64.096 48.064 28.672 48.064 64.096-21.504 64.096-48.064 64.096zM579.936 467.392c0.48-0.928 0.864-2.176 1.184-3.712 0.352-1.536 0.576-3.488 0.672-5.824 0.16-2.336 0.224-5.248 0.224-8.736 0-3.872-0.096-7.168-0.288-9.824-0.224-2.688-0.576-4.896-0.992-6.624-0.512-1.76-1.152-3.040-1.984-3.808-0.864-0.8-2.048-1.216-3.52-1.216s-3.776 0.928-7.008 2.784c-3.232 1.888-7.168 3.872-11.808 6.048s-10.080 4.192-16.224 5.984-12.864 2.688-20.224 2.688c-5.76 0-10.752-0.672-15.008-2.080-4.288-1.408-7.872-3.328-10.72-5.792-2.88-2.464-5.024-5.44-6.4-8.864-1.408-3.456-2.112-7.136-2.112-10.976 0-5.76 1.568-10.72 4.704-14.944 3.136-4.192 7.328-7.936 12.64-11.2 5.28-3.296 11.264-6.336 17.92-9.216s13.472-5.92 20.416-9.088c6.944-3.232 13.76-6.848 20.448-10.944 6.688-4.064 12.64-8.928 17.824-14.592 5.216-5.696 9.44-12.352 12.64-20.032s4.8-16.704 4.8-27.136c0-13.6-2.56-25.568-7.616-35.808-5.056-10.272-11.936-18.88-20.64-25.76s-18.816-12.032-30.432-15.488c-1.472-0.448-3.072-0.64-4.576-0.992v-35.008h-31.52v30.88c-0.416 0-0.768-0.096-1.184-0.096-8.928 0-17.248 0.736-24.928 2.176-7.68 1.472-14.464 3.232-20.32 5.248-5.888 2.048-10.784 4.224-14.72 6.464-3.968 2.24-6.784 4.224-8.512 5.952s-2.976 4.224-3.712 7.488-1.12 8-1.12 14.144c0 4.128 0.128 7.616 0.416 10.4 0.256 2.816 0.704 5.088 1.312 6.848 0.608 1.728 1.408 2.976 2.4 3.712 0.992 0.704 2.176 1.088 3.488 1.088 1.888 0 4.512-1.088 7.936-3.328 3.392-2.176 7.776-4.64 13.12-7.296s11.712-5.088 19.136-7.296c7.392-2.208 16-3.328 25.728-3.328 6.4 0 12.16 0.768 17.216 2.304 5.088 1.536 9.376 3.712 12.928 6.496 3.52 2.816 6.208 6.304 8.096 10.432 1.888 4.16 2.816 8.768 2.816 13.856 0 5.888-1.632 10.944-4.8 15.136-3.2 4.224-7.36 7.936-12.512 11.232-5.152 3.264-10.976 6.336-17.504 9.184-6.56 2.88-13.28 5.92-20.224 9.12s-13.696 6.848-20.224 10.912c-6.528 4.064-12.384 8.928-17.504 14.624-5.12 5.664-9.312 12.384-12.512 20.096-3.2 7.744-4.8 17.024-4.8 27.84 0 12.416 2.304 23.328 6.912 32.704 4.608 9.408 10.816 17.216 18.624 23.424 7.808 6.176 17.024 10.848 27.616 13.92 5.44 1.568 11.072 2.72 16.864 3.488v33.12h31.52v-33.12c1.248-0.16 2.496-0.096 3.744-0.288 6.144-0.928 11.904-2.176 17.248-3.776 5.312-1.6 10.048-3.36 14.176-5.376 4.16-1.984 6.88-3.616 8.256-4.96 1.248-1.184 2.144-2.304 2.624-3.264zM352.576 351.84c0-106.208 71.744-192.32 160.256-192.32h-355.808c1.792 5.056 3.232 10.336 3.232 16 0 26.56-21.536 48.096-48.064 48.096-5.696 0-10.976-1.44-16.032-3.232v262.88c5.056-1.824 10.336-3.232 16.032-3.232 26.56 0 48.064 21.504 48.064 48.064 0 5.696-1.44 10.976-3.232 16.032h355.808c-88.512 0.032-160.256-86.080-160.256-192.288zM224.352 418.592c-26.56 0-48.064-28.672-48.064-64.096s21.536-64.096 48.064-64.096c26.56 0 48.064 28.672 48.064 64.096s-21.504 64.096-48.064 64.096z" />
<glyph unicode="ic_users_2" glyph-name="users2" horiz-adv-x="1152" d="M768 189.388v52.78c70.498 39.728 128 138.772 128 237.832 0 159.058 0 288-192 288s-192-128.942-192-288c0-99.060 57.502-198.104 128-237.832v-52.78c-217.102-17.748-384-124.42-384-253.388h896c0 128.968-166.898 235.64-384 253.388zM327.196 164.672c55.31 36.15 124.080 63.636 199.788 80.414-15.054 17.784-28.708 37.622-40.492 59.020-30.414 55.234-46.492 116.058-46.492 175.894 0 86.042 0 167.31 30.6 233.762 29.706 64.504 83.128 104.496 159.222 119.488-16.914 76.48-61.94 126.75-181.822 126.75-192 0-192-128.942-192-288 0-99.060 57.502-198.104 128-237.832v-52.78c-217.102-17.748-384-124.42-384-253.388h279.006c14.518 12.91 30.596 25.172 48.19 36.672z" />
<glyph unicode="ic_user_group" glyph-name="user-group" d="M358.4 563.2c-113.108 0-204.8 91.692-204.8 204.8s91.692 204.8 204.8 204.8v0c113.108 0 204.8-91.692 204.8-204.8s-91.692-204.8-204.8-204.8v0zM358.4 512c110.080 0 215.040-20.48 312.32-55.808l-56.32-302.592h-64l-38.4-204.8h-307.2l-38.4 204.8h-64l-56.32 302.592c92.835 35.013 200.137 55.444 312.164 55.808h0.156zM783.872 503.296c67.584-9.216 132.608-24.576 194.56-47.104l-56.832-302.592h-64l-38.4-204.8h-202.752l18.944 102.4h64l84.48 452.096zM665.6 972.8c0.522 0.005 1.138 0.008 1.756 0.008 113.108 0 204.8-91.692 204.8-204.8s-91.692-204.8-204.8-204.8c-25.063 0-49.074 4.502-71.269 12.741l1.417-0.461c42.583 52.050 68.389 119.268 68.389 192.512s-25.805 140.462-68.82 193.056l0.431-0.544c22.016 7.168 44.032 12.288 68.096 12.288z" />
<glyph unicode="ic_statistics" glyph-name="stats, statistics, grow, increase, up" d="M191.936 800h-31.584v-736h640v30.816l-607.872 1.568-0.544 703.616zM256.352 160h160v348l-160-160v-188zM448.352 160h160v316l-64-64-96 96v-348zM640.352 160h160v485.984l-160-160v-325.984zM428.384 605.856l115.84-115.2 228.736 227.584 58.688-59.008-1.408 140.768-141.28-0.736 54.944-55.104-199.744-200.32-118.048 118.496-179.936-179.328 30.048-29.184 152.16 152.032z" />
<glyph unicode="ic_select_item" glyph-name="ic_select_item" horiz-adv-x="1342" d="M317.563 738.263c0 52.37-43.456 95.826-95.826 95.826s-95.826-43.456-95.826-95.826c0-52.37 43.456-95.826 95.826-95.826s95.826 42.342 95.826 95.826zM221.737 899.83c89.14 0 161.567-72.427 161.567-161.567s-72.427-161.567-161.567-161.567c-89.14 0-161.567 72.427-161.567 161.567s72.427 161.567 161.567 161.567zM221.737 381.702c-122.568 0-221.737-99.169-221.737-221.737s99.169-221.737 221.737-221.737 221.737 99.169 221.737 221.737-99.169 221.737-221.737 221.737zM221.737 960c-122.568 0-221.737-99.169-221.737-221.737s99.169-221.737 221.737-221.737 221.737 99.169 221.737 221.737-99.169 221.737-221.737 221.737zM384.418 159.965c0-90.255-72.427-162.681-162.681-162.681s-161.567 72.427-161.567 162.681 72.427 162.681 162.681 162.681 161.567-73.541 161.567-162.681zM577.184 958.886l764.379-490.272-275.221-76.884 236.222-352.104-150.424-102.511-238.45 353.219-174.938-225.079-161.567 893.632z" />
<glyph unicode="ic_paperplane" glyph-name="paperplane, send, flight, email" d="M1009.376 954.88c-5.312 3.424-11.36 5.12-17.376 5.12-6.176 0-12.384-1.76-17.76-5.376l-960-640c-9.888-6.56-15.328-18.112-14.048-29.952 1.216-11.808 8.896-22.016 19.936-26.368l250.368-100.192 117.728-206.016c5.632-9.888 16.096-16 27.424-16.128 0.128 0 0.224 0 0.352 0 11.232 0 21.664 5.952 27.424 15.552l66.464 110.816 310.24-124.064c3.808-1.536 7.808-2.272 11.872-2.272 5.44 0 10.816 1.376 15.68 4.128 8.448 4.736 14.24 13.056 15.872 22.624l160 960c2.080 12.576-3.488 25.184-14.176 32.128zM100.352 295.136l741.6 494.432-539.2-577.184c-2.848 1.696-5.376 3.936-8.512 5.184l-193.888 77.568zM326.048 189.888c-0.064 0.128-0.16 0.192-0.224 0.32l606.176 648.8-516.768-805.184-89.184 156.064zM806.944 12.512l-273.312 109.312c-6.496 2.56-13.248 3.424-19.936 3.808l420.864 652.416-127.616-765.536z" />
<glyph unicode="ic_medios_pago" glyph-name="ic_medios_pago" d="M984.904 770.604l-627.151 132.723c-26.534 5.614-52.833-11.505-58.447-38.039l-11.915-76.57 723.626-153.131 11.915 76.57c5.614 26.524-11.495 52.832-38.029 58.447zM721.17 619.349c-7.325 26.38-34.893 41.973-61.265 34.659l-119.056-33.051-280.668 59.399-30.867-145.846-192.861-53.529c-26.37-7.315-41.963-34.883-34.649-61.255l108.689-391.662c7.325-26.37 34.895-41.973 61.265-34.649l623.453 173.015c26.37 7.325 41.963 34.883 34.649 61.265l-18.656 67.236 69.922-14.783c26.534-5.624 52.833 11.495 58.447 38.029l44.238 209.046-251.862 53.297-10.777 38.829zM793.17 420.29l15.419 72.872c2.316 10.911 13.135 17.949 24.044 15.645l72.872-15.429c10.921-2.316 17.959-13.123 15.655-24.044l-15.419-72.872c-2.316-10.911-13.133-17.959-24.044-15.645l-72.872 15.419c-10.931 2.324-17.97 13.143-15.655 24.054zM47.302 441.896l623.431 173.005c0.8 0.216 1.598 0.318 2.378 0.318 3.514 0 7.715-2.306 8.943-6.721l5.143-18.522 16.115-58.067-641.155-177.923-21.258 76.58c-1.332 4.805 1.6 9.999 6.403 11.331zM790.762 216.857c0.82-2.972-0.040-5.43-0.912-6.967-0.86-1.536-2.52-3.546-5.491-4.364l-623.441-173.015c-0.788-0.216-1.598-0.328-2.378-0.328-3.514 0-7.715 2.316-8.943 6.731l-63.395 228.451 641.155 177.933 63.405-228.44zM261.655 201.224c-2.992 10.757-14.221 17.109-24.978 14.127l-72.81-20.212c-10.747-2.982-17.109-14.221-14.117-24.978l20.202-72.8c2.992-10.757 14.221-17.109 24.978-14.117l72.81 20.202c10.757 2.982 17.109 14.221 14.127 24.978l-20.212 72.8z" />
<glyph unicode="ic_logo_miron" glyph-name="ic_logo_miron" horiz-adv-x="992" d="M277.439 724.214c55.412 131.746 207.891 227.304 373.563 220.708 161.149-12.251 303.449-103.663 327.386-268.392 9.235-88.208 13.759-175.284 13.947-261.607-2.639 29.403-36.376 270.466-308.727 307.219 0.188 0.188-313.439 2.073-406.17 2.073zM223.158 651.273c36.753 272.35 277.816 305.9 307.219 308.727-86.134-0.377-173.4-4.712-261.607-13.947-164.73-24.125-256.141-166.426-268.392-327.574-6.597-165.672 88.962-317.962 220.896-373.563-0.188 92.92 1.885 406.358 1.885 406.358zM769.366 245.292c-36.753-272.35-277.816-305.9-307.219-308.727 86.134 0.377 173.4 4.712 261.607 13.947 164.73 23.937 256.141 166.426 268.392 327.386 6.597 165.672-88.962 317.962-220.896 373.563 0-92.731-1.885-406.17-1.885-406.17zM312.119 173.105c-272.35 36.753-305.9 277.816-308.727 307.219 0.377-86.134 4.712-173.4 13.947-261.607 24.125-164.73 166.426-256.141 327.574-268.392 165.672-6.597 317.962 88.962 373.563 220.896-92.92 0-406.358 1.885-406.358 1.885zM280.078 294.862h62.575v237.105l145.316-197.902h14.513l144.374 197.902v-238.047h71.622v336.056h-65.025l-152.667-201.86-157.567 201.86h-63.14v-335.114z" />
<glyph unicode="ic_logo_itegocrm" glyph-name="ic_logo_itegocrm" horiz-adv-x="863" d="M559.197 131.949c0.512-7.163 6.651-11.511 15.604-8.953 162.694 61.65 288.296 221.018 288.296 405.456-0.256 238.413-193.391 431.548-431.548 431.548s-431.548-193.135-431.548-431.548c0-191.089 124.323-353.271 296.737-410.060 8.442-2.814 14.837 4.349 14.581 11.256l0.256 119.462c0 8.953-3.581 12.023-14.581 19.186-93.882 48.859-158.857 147.090-158.857 260.157 0 162.182 131.23 293.412 293.412 293.412s293.412-131.485 293.412-293.412c0-111.021-61.65-207.46-152.462-257.343-11-6.395-13.302-11.256-13.302-18.674v-120.486zM350.201 372.92c0 29.162 13.814 43.743 41.185 43.743h54.999c41.185-4.093 63.44-29.162 68.812-72.905v-364.015c-1.023-27.116-15.604-40.929-41.185-43.743h-82.626c-28.906 4.093-39.65 20.465-41.185 43.743v393.177z" />
<glyph unicode="ic_logo_itego" glyph-name="ic_logo_itego" horiz-adv-x="863" d="M559.197 131.949c0.512-7.163 6.651-11.511 15.604-8.953 162.694 61.65 288.296 221.018 288.296 405.456-0.256 238.413-193.391 431.548-431.548 431.548s-431.548-193.135-431.548-431.548c0-191.089 124.323-353.271 296.737-410.060 8.442-2.814 14.837 4.349 14.581 11.256l0.256 119.462c0 8.953-3.581 12.023-14.581 19.186-93.882 48.859-158.857 147.090-158.857 260.157 0 162.182 131.23 293.412 293.412 293.412s293.412-131.485 293.412-293.412c0-111.021-61.65-207.46-152.462-257.343-11-6.395-13.302-11.256-13.302-18.674v-120.486zM350.201 372.92c0 29.162 13.814 43.743 41.185 43.743h54.999c41.185-4.093 63.44-29.162 68.812-72.905v-364.015c-1.023-27.116-15.604-40.929-41.185-43.743h-82.626c-28.906 4.093-39.65 20.465-41.185 43.743v393.177z" />
<glyph unicode="ic_logo_grande_miron" glyph-name="ic_logo_grande_miron" horiz-adv-x="6068" d="M1525.539 942.095v-33.926h-94.239v-162.091h-41.465v162.091h-90.469v33.926h226.173zM1597.161 746.078h41.465v73.506h45.612l81.045-75.391h61.632l-90.469 75.391h45.235c0 0 28.46 0.188 28.46 33.738 0 33.361 0 53.528 0 53.528s0.754 35.434-36.753 35.434c-37.507 0-176.227 0-176.227 0v-196.205zM1764.906 859.353c0-10.555-9.424-9.612-9.424-9.612h-116.856v58.428c0 0 110.26 0 118.741 0s7.539-7.728 7.539-7.728 0-39.58 0-41.088zM1924.924 744.193l23.56 43.35h124.961l23.748-43.35h48.439l-111.767 196.017h-42.408l-111.013-196.017h44.481zM2056.293 821.469h-90.846l46.554 81.422 44.292-81.422zM2226.677 744.193h39.58v136.646l162.656-136.835h31.476v196.017h-41.465v-137.777l-163.599 137.777h-28.649v-195.828zM4218.699 744.193l23.56 43.35h124.961l23.748-43.35h48.439l-111.767 196.017h-42.408l-111.013-196.017h44.481zM4350.068 821.469h-90.846l46.554 81.422 44.292-81.422zM2602.125 798.475l-37.319-9.801 3.77-25.633c0 0 4.335-19.036 32.041-19.036s154.175 0 154.175 0 33.361-1.319 33.361 32.607 0 53.905 0 53.905 0.188 32.23-49.381 32.23c-49.57 0-124.018 0-124.018 0v43.35h131.934v-22.24l39.58 10.555v11.497c0 0 1.131 33.926-33.926 33.926-35.245 0-132.877 0-140.604 0-15.267 0-34.68-1.319-34.68-25.256s0-59.371 0-59.371 1.696-28.46 28.46-28.46c26.952 0 141.358 0 141.358 0s3.581 0 3.581-3.581 0-45.423 0-45.423h-147.201l-1.131 20.733zM2899.543 744.193h43.35v75.391h84.815v33.926h-86.7v54.659h156.437v32.041h-197.902v-196.017zM3165.297 911.373c0 0 0-114.406 0-138.343 0-17.905 22.052-28.837 37.696-28.837 15.455 0 144.751 0 173.211 0 25.633 0 30.345 15.455 30.345 25.633 0 10.366 0 121.191 0 143.997 0 18.094-18.282 26.387-34.868 26.387-8.482 0-168.688 0-168.688 0-36.376 0-37.696-28.837-37.696-28.837zM3214.301 906.284c2.45 0 144.186 0 146.636 0s3.958-2.262 3.958-3.958 0-115.914 0-118.553-2.639-5.654-5.654-5.654-143.055 0-145.128 0-3.77 1.319-3.77 3.77c0 2.45 0 117.987 0 119.683s1.508 4.712 3.958 4.712zM3523.404 744.193h41.465v73.506h45.612l81.045-75.391h61.632l-90.469 75.391h45.235c0 0 28.46 0.188 28.46 33.738 0 33.361 0 53.528 0 53.528s0.754 35.434-36.753 35.434-176.227 0-176.227 0v-196.205zM3691.15 857.468c0-10.555-9.424-9.612-9.424-9.612h-116.856v58.428c0 0 110.26 0 118.741 0s7.539-7.728 7.539-7.728 0-22.052 0-35.245c0-2.262 0-4.335 0-5.843zM3840.047 744.193h35.811v137.4l88.208-112.898h8.482l85.946 112.898v-137.4h41.465v196.017h-35.622l-94.427-120.249-93.297 120.249h-36.753v-196.017zM4218.699 744.193l23.56 43.35h124.961l23.748-43.35h48.439l-111.767 196.017h-42.408l-111.013-196.017h44.481zM4350.068 821.469h-90.846l46.554 81.422 44.292-81.422zM4520.452 940.21v-196.017c0 0 85.38 0 117.422 0 33.549 0 101.967 4.712 118.553 74.637 0 0 1.885 24.691 0 40.334-1.508 23.748-20.356 84.061-117.61 81.045h-118.364zM4645.224 908.169c71.245 0 69.171-51.643 69.171-51.643v-20.921c0-57.297-66.533-55.601-66.533-55.601h-84.25v128.165c0.188 0 10.366 0 81.611 0zM4854.058 913.258c0 0 0-114.406 0-138.343 0-17.905 22.052-28.837 37.696-28.837 15.455 0 144.751 0 173.211 0 25.633 0 30.345 15.455 30.345 25.633 0 10.366 0 121.191 0 143.997 0 18.094-18.282 26.387-34.868 26.387-8.482 0-168.688 0-168.688 0-36.376 0-37.696-28.837-37.696-28.837zM4903.062 908.169c2.45 0 144.186 0 146.636 0s3.958-2.262 3.958-3.958 0-115.914 0-118.553-2.639-5.654-5.654-5.654c-3.016 0-143.055 0-145.128 0s-3.77 1.319-3.77 3.77c0 2.45 0 117.987 0 119.683s1.508 4.712 3.958 4.712zM5210.281 746.078h41.465v75.391h45.612l81.045-75.391h61.632l-90.469 75.391h45.235c0 0 28.46 0.188 28.46 33.738 0 33.361 0 51.643 0 51.643s0.754 35.434-36.753 35.434c-37.507 0-176.227 0-176.227 0v-196.205zM5379.911 861.238c0-10.555-9.424-9.612-9.424-9.612h-116.856v58.428c0 0 110.26 0 118.741 0s7.539-7.728 7.539-7.728 0-22.052 0-35.245c0-2.262 0-4.335 0-5.843zM5532.578 942.095v-196.017h203.556v33.926h-162.091v50.889h92.354v32.041h-92.354v45.235h162.091v33.926h-203.556zM5860.906 800.359l-37.319-9.801 3.77-25.633c0 0 4.335-19.036 32.041-19.036s154.175 0 154.175 0 33.361-1.319 33.361 32.607 0 53.905 0 53.905 0.188 32.23-49.381 32.23-124.018 0-124.018 0v43.35h131.934v-22.24l39.58 10.555v11.497c0 0 1.131 33.926-33.926 33.926s-132.877 0-140.604 0c-15.267 0-34.68-1.319-34.68-25.821s0-60.313 0-60.313 1.696-29.026 28.46-29.026 141.358 0 141.358 0 3.581 0 3.581-3.581 0-43.538 0-43.538h-147.201l-1.131 20.921zM1298.612 633.933h132.311l323.805-423.887 327.386 423.887h128.542v-698.31h-147.201v501.728l-297.606-414.274h-33.172l-303.449 414.274v-501.728h-130.615v698.31zM2657.914-64h136.458v575.423h-136.458v-575.423zM3218.824-61.173h120.626v218.257h134.95l239.555-221.273h182.070l-267.45 221.273h133.631c0 0 84.061 0.754 84.061 98.762s0 152.102 0 152.102 2.073 103.474-108.186 103.474c-110.448 0-519.445 0-519.445 0v-572.596zM3714.709 272.433c0-30.533-28.083-27.706-28.083-27.706h-346.799v168.688c0 0 327.009 0.188 352.265 0.188 25.445 0 22.429-22.24 22.429-22.24s0-63.894 0-101.778c0.188-6.597 0.188-12.44 0.188-17.151zM4233.023 426.419c0 0 0-335.491 0-405.981 0-52.585 66.91-84.25 113.841-84.25s437.457 0 524.157 0c77.841 0 91.6 45.046 91.6 75.391s0 355.658 0 422.567c0 52.962-55.412 77.087-105.548 77.087-25.445 0-510.209 0-510.209 0-109.694 0-113.841-84.815-113.841-84.815zM4380.79 413.414c7.728 0 438.588 0 446.127 0s12.251-6.597 12.251-11.874c0-5.277 0-342.276 0-350.003s-8.105-16.586-16.963-16.586c-9.047 0-435.007 0-441.415 0s-11.497 3.958-11.497 11.12c0 7.351 0 348.119 0 353.584s3.77 13.759 11.497 13.759zM5360.309-64h117.987v416.913l494.943-417.101h95.558v597.852h-124.207v-420.117l-497.204 420.117h-87.077v-597.663zM277.439 724.214c55.412 131.746 207.891 227.304 373.563 220.708 161.149-12.251 303.449-103.663 327.386-268.392 9.235-88.208 13.759-175.284 13.947-261.607-2.639 29.403-36.376 270.466-308.727 307.219 0.188 0.188-313.439 2.073-406.17 2.073zM223.158 651.273c36.753 272.35 277.816 305.9 307.219 308.727-86.134-0.377-173.4-4.712-261.607-13.947-164.73-24.125-256.141-166.426-268.392-327.574-6.597-165.672 88.962-317.962 220.896-373.563-0.188 92.92 1.885 406.358 1.885 406.358zM769.366 245.292c-36.753-272.35-277.816-305.9-307.219-308.727 86.134 0.377 173.4 4.712 261.607 13.947 164.73 23.937 256.141 166.426 268.392 327.386 6.597 165.672-88.962 317.962-220.896 373.563 0-92.731-1.885-406.17-1.885-406.17zM312.119 173.105c-272.35 36.753-305.9 277.816-308.727 307.219 0.377-86.134 4.712-173.4 13.947-261.607 24.125-164.73 166.426-256.141 327.574-268.392 165.672-6.597 317.962 88.962 373.563 220.896-92.92 0-406.358 1.885-406.358 1.885zM280.078 294.862h62.386v237.105l145.505-197.902h14.324l144.562 197.902v-238.047h71.622v336.056h-65.213l-152.479-201.86-157.567 201.86h-63.14z" />
<glyph unicode="ic_logo_grande_itegocrm" glyph-name="ic_logo_grande_itegocrm" horiz-adv-x="3175" d="M234.562 601.222c0-3.153 3.153-5.044 6.936-3.783 68.099 26.483 121.064 95.842 121.064 175.291-0.631 103.409-81.34 187.271-180.966 187.271s-181.596-83.232-181.596-186.64c0-80.709 49.813-152.591 124.217-177.813 2.522-0.631 5.044 0.631 5.675 3.153 0 0.631 0 1.261 0 1.892v51.704c0 3.783-1.261 5.044-6.305 8.197-60.532 32.158-83.862 109.084-52.335 171.507s105.931 86.384 166.463 54.227 84.493-109.084 52.966-171.507c-11.35-22.7-29.005-40.985-50.443-52.966-4.414-2.522-5.675-5.044-5.675-8.197v-52.335zM146.916 705.892v-170.246c0-10.089 7.567-18.286 17.025-18.916h34.68c10.719 1.261 17.025 6.936 17.025 18.916v157.635c-2.522 18.916-11.35 29.635-29.005 31.527h-22.7c-11.35 0-17.025-6.305-17.025-18.916zM145.655 478.897v-394.719c-0.631-10.089 6.936-18.916 17.025-19.547h34.68c10.089 0.631 17.655 9.458 17.025 20.177 0 0 0 0 0 0v381.478c-2.522 18.916-11.35 29.635-29.005 31.527h-23.33c-10.089 0-16.394-6.305-16.394-18.916zM362.562 497.813h-36.571c-8.828 1.261-17.025-5.044-18.286-13.872 0-1.261 0-3.153 0-5.044v-25.222c-1.261-8.828 5.044-17.655 13.872-18.916 1.261 0 3.153 0 4.414 0h36.571v-283.744c0-44.138 34.68-88.906 85.754-88.276l73.773-0.631c9.458 0 17.655 7.567 17.655 17.655 0 0.631 0 1.261 0 1.892v31.527c-0.631 6.936-5.675 11.98-11.98 12.611h-61.163c-18.286 0-36.571 12.611-36.571 31.527v277.438h91.429c6.305 0.631 11.98 5.675 11.98 12.611v37.833c-0.631 6.936-5.675 11.98-11.98 12.611h-91.429v94.581c1.261 8.828-5.044 17.655-13.872 18.916-1.261 0-3.153 0-4.414 0h-30.266c-8.828 1.261-17.025-5.044-18.286-13.872 0-1.261 0-3.153 0-5.044v-94.581zM877.084 327.567h-218.798c5.044 79.448 81.97 129.261 151.33 107.192 40.355-23.33 67.468-54.857 67.468-107.192v0zM918.069 264.512h18.286c10.089 1.261 11.98 6.305 11.98 12.611l-1.261 54.227c0 88.276-59.271 148.808-125.478 167.724-273.655 72.512-330.404-421.833-68.729-436.335 88.906-6.305 151.33 25.852 175.921 49.813 9.458 9.458 19.547 26.483 12.611 42.877-8.197 17.655-26.483 17.025-44.138 8.828-17.025-11.98-35.31-22.069-54.857-29.635-29.005-10.719-60.532-10.719-95.842-1.892-44.768 13.241-68.729 37.202-79.448 69.36-8.197 20.177-12.611 41.616-11.98 63.054l262.936-0.631zM1375.842 56.433c-6.305-63.054-80.079-128.631-201.143-119.803-64.315 3.153-114.759 17.025-140.611 50.443-6.936 8.828-8.828 20.808-6.305 31.527 8.197 18.286 34.68 27.744 54.857 6.305 11.35-10.719 54.227-20.808 109.714-18.916 83.232 1.892 120.433 30.266 109.714 107.192-78.818-63.054-167.724-59.901-225.734-6.305-63.685 52.966-86.384 146.916-61.163 264.828 17.025 77.557 86.384 128 170.877 132.414 56.749 1.261 97.734-11.98 122.325-37.833 25.222 51.074 66.837 37.833 66.837 12.611v-422.463zM1180.374 441.064c-85.754-16.394-104.039-78.818-104.039-182.857 0.631-72.512 40.355-106.562 85.754-126.108 59.271-17.655 107.192 17.655 140.611 58.64 3.783 3.783 5.675 8.828 6.305 13.872v182.857c0 5.675-2.522 11.35-6.305 15.133-28.374 35.31-66.207 42.877-122.325 38.463v0zM1764.887 280.906c0-88.276-57.379-160.158-128-160.158s-128 71.882-128 160.158 57.379 160.158 128 160.158c70.621 0 128-71.251 128-160.158zM1636.887 502.857c-109.714 0-199.251-99.626-199.251-221.951s88.906-221.951 199.251-221.951 199.251 99.626 199.251 221.951-89.537 221.951-199.251 221.951zM2046.108 118.857c24.591-0.631 49.182 6.936 68.729 22.7 20.177 14.502 34.049 36.571 40.355 61.163l66.837 0.631c-3.783-27.113-15.133-52.966-32.158-74.404-17.655-22.7-40.355-40.355-65.576-52.335s-53.596-18.286-81.34-17.655c-32.158-0.631-63.054 9.458-89.537 28.374-25.222 18.916-44.138 45.399-54.227 76.296-11.98 35.31-15.764 72.512-11.98 109.714l1.892 20.177c4.414 39.094 16.394 76.926 35.941 110.975 17.655 31.527 42.877 58.010 73.773 76.296s65.576 27.113 100.887 25.222c44.768-1.261 80.079-16.394 107.192-45.399 26.483-29.005 40.355-66.207 40.355-110.975l-66.207 0.631c-0.631 28.374-8.197 51.074-23.33 68.099-15.764 17.655-37.833 27.744-60.532 27.744-35.31 1.261-69.36-13.872-92.059-41.616-24.591-28.374-39.724-68.729-46.030-120.433l-1.261-10.089c-1.261-17.655-1.892-35.31-0.631-52.335 1.892-30.897 10.719-55.488 25.852-73.773 15.133-18.916 35.941-28.374 63.054-29.005zM2544.236 430.345l-33.419 3.783c-45.399 0-81.34-21.438-107.823-63.685l-52.335-311.488h-71.251l73.773 438.227 68.729 0.631-10.719-51.074c30.266 40.985 65.576 60.532 106.562 59.271 11.35-0.631 22.7-2.522 34.049-6.305l-7.567-69.36zM2688 498.443l-8.828-49.182c32.788 37.833 80.079 58.64 129.261 56.749 23.961 0.631 47.921-6.305 68.729-18.916 18.286-11.98 32.158-30.266 38.463-51.704 39.724 47.921 87.015 71.882 141.241 70.621 42.246-1.261 73.773-15.764 93.951-44.138s27.744-66.207 22.7-114.128l-46.66-288.158h-70.621l46.66 289.419c1.892 12.611 1.892 25.852 0 38.463-5.044 36.571-28.374 55.488-69.99 56.118-25.852 0.631-50.443-8.197-70.621-25.222-20.808-17.025-35.31-40.985-40.985-67.468l-48.552-291.941h-71.882l47.291 288.788c3.153 30.266-1.261 52.966-13.241 69.36s-30.897 24.591-56.749 25.222c-44.138 1.261-79.448-19.547-105.931-62.424l-53.596-320.946h-71.251l73.773 438.857 66.837 0.631z" />
<glyph unicode="ic_logo_cat" glyph-name="ic_logo_cat" horiz-adv-x="3172" d="M32.26 181.593h101.984v-245.593h-101.984v245.593zM134.244 247.154l192.52-311.154h78.049l192.52 297.626v-297.626h96.78v414.179h-133.203l-177.951-286.179h-33.301l-182.114 286.179h-135.285v-101.984h101.984zM782.569-64h98.862v414.179h-98.862v-414.179zM965.724 350.179v-103.024h538.016c42.667 0 42.667-65.561 0-65.561h-538.016v-245.593h106.146v164.423h297.626l142.569-164.423h114.472l-140.488 166.504c194.602 0 194.602 247.675 0 247.675h-520.325zM2448.65-64h119.675v249.756h-119.675v-249.756zM2568.325 228.423l429.789-293.463h134.244v415.22h-115.512v-289.301h-30.179l-418.341 289.301h-119.675v-119.675l119.675-2.081zM2381.008 256.52c-12.488 55.154-65.561 82.211-117.593 92.618h-451.642c-66.602-6.244-113.431-45.789-112.39-119.675v-205.008c17.691-54.114 56.195-82.211 112.39-89.496h464.13c54.114 4.163 85.333 34.341 105.106 89.496zM1873.171 244.033h333.008c84.293-18.732 97.821-172.748 0-194.602h-333.008c-84.293 11.447-93.659 180.033 0 194.602zM1085.398 940.228l-70.764-81.171-555.707-5.203c-236.228-22.894-229.984-369.431 22.894-378.797l455.805 1.041c35.382 6.244 64.52 18.732 94.699 45.789l119.675 163.382 556.748 4.163-65.561-91.577-266.407 1.041-90.537-159.22c-20.813-30.179-61.398-57.236-121.756-59.317l-833.561 4.163c-411.057 14.569-475.577 539.057 14.569 550.504l739.902 5.203zM1197.789 750.829h290.341l46.829 78.049c34.341 56.195 83.252 53.073 114.472 0l254.959-378.797c37.463-49.951 67.642-68.683 136.325-68.683l762.797 3.122c16.65 1.041 27.057 7.285 27.057 20.813l-1.041 459.967h280.976l61.398 84.293-832.52 1.041-71.805-91.577 327.805 1.041 2.081-373.593-429.789-1.041-251.837 361.106c-56.195 68.683-70.764 98.862-156.098 106.146-120.715 13.528-243.512 12.488-367.35-3.122-30.179-6.244-65.561-15.61-90.537-46.829l-104.065-151.935z" />
<glyph unicode="ic_listado_agregar" glyph-name="ic_listado_agregar" d="M787.692 711.877h-129.969c0 59.077-47.262 106.338-106.338 106.338-51.2 0-98.462-39.385-102.4-90.585-11.815 7.877-15.754 7.877-23.631 7.877h-94.523c0 15.754 0 70.892 0 94.523s-19.692 35.446-35.446 35.446c-27.569 0-39.385 0-66.954 0-7.877 0-35.446-3.938-35.446-35.446 0-23.631 0-82.708 0-94.523-31.508 0-63.015 0-98.462 0-15.754-3.938-31.508-15.754-31.508-39.385 0-19.692 0-59.077 0-70.892 0-27.569 23.631-35.446 31.508-35.446 19.692 0 63.015 0 98.462 0 0-19.692 0-74.831 0-94.523 0-27.569 23.631-35.446 35.446-35.446 3.938 0 7.877 0 7.877 0v-405.662c0-43.323 35.446-78.769 78.769-78.769h472.615c43.323 0 78.769 35.446 78.769 78.769v578.954c0 43.323-35.446 78.769-78.769 78.769zM393.846 121.108c-23.631 0-39.385 15.754-39.385 39.385s15.754 39.385 39.385 39.385 39.385-15.754 39.385-39.385-15.754-39.385-39.385-39.385zM393.846 278.646c-23.631 0-39.385 15.754-39.385 39.385s15.754 39.385 39.385 39.385 39.385-15.754 39.385-39.385-15.754-39.385-39.385-39.385zM393.846 436.185c-23.631 0-39.385 15.754-39.385 39.385s15.754 39.385 39.385 39.385 39.385-15.754 39.385-39.385c0-23.631-15.754-39.385-39.385-39.385zM760.123 144.738c0-7.877-3.938-11.815-11.815-11.815h-236.308c-7.877 0-11.815 3.938-11.815 11.815v27.569c0 7.877 3.938 11.815 11.815 11.815h236.308c7.877 0 11.815-3.938 11.815-11.815v-27.569zM760.123 302.277c0-7.877-3.938-11.815-11.815-11.815h-236.308c-7.877 0-11.815 3.938-11.815 11.815v27.569c0 7.877 3.938 11.815 11.815 11.815h236.308c7.877 0 11.815-3.938 11.815-11.815v-27.569zM760.123 459.815c0-7.877-3.938-11.815-11.815-11.815h-236.308c-7.877 0-11.815 3.938-11.815 11.815v27.569c0 7.877 3.938 11.815 11.815 11.815h236.308c7.877 0 11.815-3.938 11.815-11.815v-27.569zM236.308 637.046c0 0-90.585 0-90.585 0-7.877-3.938-11.815 3.938-11.815 7.877v27.569c0 7.877 3.938 11.815 11.815 11.815 0 0 90.585 0 94.523 0 0 0 0 90.585 0 90.585 0 7.877 3.938 11.815 11.815 11.815h23.631c7.877 0 11.815-3.938 11.815-11.815 0 0 0-90.585 0-94.523 0 0 94.523 0 94.523 0 7.877 3.938 11.815 0 11.815-7.877v-27.569c0-7.877-3.938-11.815-11.815-11.815 0 0-90.585 0-94.523 0 0 0 0-94.523 0-94.523 0-7.877-3.938-11.815-11.815-11.815h-27.569c-7.877 0-11.815 3.938-11.815 11.815 0 3.938 0 94.523 0 98.462z" />
<glyph unicode="ic_line_chart" glyph-name="line-chart" horiz-adv-x="1170" d="M1170.286 73.143v-73.143h-1170.286v877.714h73.143v-804.571h1097.143zM1097.143 786.286v-248.571c0-16-19.429-24.571-31.429-12.571l-69.143 69.143-361.714-361.714c-7.429-7.429-18.857-7.429-26.286 0l-133.143 133.143-237.714-237.714-109.714 109.714 334.286 334.286c7.429 7.429 18.857 7.429 26.286 0l133.143-133.143 265.143 265.143-69.143 69.143c-12 12-3.429 31.429 12.571 31.429h248.571c10.286 0 18.286-8 18.286-18.286z" />
<glyph unicode="ic_group_add" glyph-name="group_add" d="M554 384.667c86 0 256-42 256-128v-86h-512v86c0 86 170 128 256 128zM838 376.667c86-14 186-54 186-120v-86h-128v86c0 50-22 88-58 120zM554 468.667c-70 0-128 58-128 128s58 128 128 128 128-58 128-128-58-128-128-128zM768 468.667c-14 0-26 2-38 6 24 34 38 76 38 122s-14 88-38 122c12 4 24 6 38 6 70 0 128-58 128-128s-58-128-128-128zM342 512.667v-86h-128v-128h-86v128h-128v86h128v128h86v-128h128z" />
<glyph unicode="ic_group" glyph-name="group, users" horiz-adv-x="1097" d="M338.857 438.857c-59.429-1.714-113.143-27.429-151.429-73.143h-76.571c-57.143 0-110.857 27.429-110.857 90.857 0 46.286-1.714 201.714 70.857 201.714 12 0 71.429-48.571 148.571-48.571 26.286 0 51.429 4.571 76 13.143-1.714-12.571-2.857-25.143-2.857-37.714 0-52 16.571-103.429 46.286-146.286zM950.857 74.857c0-92.571-61.143-148-152.571-148h-499.429c-91.429 0-152.571 55.429-152.571 148 0 129.143 30.286 327.429 197.714 327.429 19.429 0 90.286-79.429 204.571-79.429s185.143 79.429 204.571 79.429c167.429 0 197.714-198.286 197.714-327.429zM365.714 804.571c0-80.571-65.714-146.286-146.286-146.286s-146.286 65.714-146.286 146.286 65.714 146.286 146.286 146.286 146.286-65.714 146.286-146.286zM768 585.143c0-121.143-98.286-219.429-219.429-219.429s-219.429 98.286-219.429 219.429 98.286 219.429 219.429 219.429 219.429-98.286 219.429-219.429zM1097.143 456.571c0-63.429-53.714-90.857-110.857-90.857h-76.571c-38.286 45.714-92 71.429-151.429 73.143 29.714 42.857 46.286 94.286 46.286 146.286 0 12.571-1.143 25.143-2.857 37.714 24.571-8.571 49.714-13.143 76-13.143 77.143 0 136.571 48.571 148.571 48.571 72.571 0 70.857-155.429 70.857-201.714zM1024 804.571c0-80.571-65.714-146.286-146.286-146.286s-146.286 65.714-146.286 146.286 65.714 146.286 146.286 146.286 146.286-65.714 146.286-146.286z" />
<glyph unicode="ic_garantia" glyph-name="ic_garantia" d="M646.996 574.090c-6.609 6.606-15.821 10.396-25.276 10.396-9.589 0-18.561-3.689-25.273-10.396l-125.156-125.153-43.219 43.225c-6.749 6.729-15.718 10.436-25.25 10.436-9.541 0-18.515-3.712-25.273-10.464-6.752-6.755-10.473-15.735-10.473-25.282 0-9.555 3.724-18.535 10.47-25.279l68.492-68.498c6.695-6.681 15.664-10.359 25.247-10.359 0.003 0 0.003 0 0.003 0 9.589 0 18.555 3.681 25.282 10.384l150.432 150.429c13.934 13.934 13.936 36.61-0.006 50.561zM929.354 748.963c-0.566 6.512-4.51 12.249-10.387 15.106l-398.834 194.058c-5.134 2.5-11.134 2.5-16.267 0l-398.831-194.055c-5.877-2.86-9.824-8.594-10.387-15.106-0.509-5.851-11.946-145.284 32.114-315.584 25.954-100.318 65.918-190.311 118.781-267.48 66.302-96.783 153.069-173.432 257.9-227.813 2.683-1.393 5.623-2.088 8.56-2.088s5.877 0.695 8.56 2.088c104.828 54.382 191.601 131.028 257.903 227.813 52.863 77.169 92.828 167.163 118.779 267.48 44.057 170.3 32.62 309.73 32.111 315.582zM511.999 240.153c-130.378 0-236.447 106.069-236.447 236.447s106.069 236.447 236.447 236.447 236.447-106.069 236.447-236.447-106.069-236.447-236.447-236.447z" />
<glyph unicode="ic_format_mirrored" glyph-name="ic_format_mirrored" d="M896 832h-768v-85.333h768v85.333zM896 277.333v341.333l-170.667-170.667 170.667-170.667zM554.667 661.333h-426.667v-85.333h426.667v85.333zM896 64v85.333h-768v-85.333h768zM554.667 320h-426.667v-85.333h426.667v85.333zM554.667 490.667h-426.667v-85.333h426.667v85.333z" />
<glyph unicode="ic_filter" glyph-name="filter" horiz-adv-x="805" d="M801.714 782.286c5.714-13.714 2.857-29.714-8-40l-281.714-281.714v-424c0-14.857-9.143-28-22.286-33.714-4.571-1.714-9.714-2.857-14.286-2.857-9.714 0-18.857 3.429-25.714 10.857l-146.286 146.286c-6.857 6.857-10.857 16-10.857 25.714v277.714l-281.714 281.714c-10.857 10.286-13.714 26.286-8 40 5.714 13.143 18.857 22.286 33.714 22.286h731.429c14.857 0 28-9.143 33.714-22.286z" />
<glyph unicode="ic_dollar" glyph-name="dollar, bill, money, stack" horiz-adv-x="1216" d="M1152.064 223.68l1.824 546.848-993.6-0.608-0.032 62.72h1055.744v-608.992l-63.936 0.032zM1119.84 127.456l-63.904 0.064 1.824 546.848-993.6-0.64-0.032 62.72h1055.744v-608.992zM1025.696 63.36h-1025.696v576.96h1025.696v-576.96zM961.568 578.208h-897.472v-450.752h897.44v450.752zM865.44 175.52c0-5.664 1.408-10.944 3.232-16h-355.84c88.512 0 160.288 86.080 160.288 192.32s-71.776 192.32-160.288 192.32h355.808c-1.824-5.056-3.232-10.336-3.232-16.032 0-26.56 21.504-48.064 48.064-48.064 5.696 0 10.976 1.408 16.032 3.232v-262.88c-5.056 1.792-10.336 3.232-16.032 3.232-26.528-0.032-48.032-21.568-48.032-48.128zM801.312 418.592c-26.56 0-48.064-28.672-48.064-64.096s21.504-64.096 48.064-64.096 48.064 28.672 48.064 64.096-21.504 64.096-48.064 64.096zM579.936 467.392c0.48-0.928 0.864-2.176 1.184-3.712 0.352-1.536 0.576-3.488 0.672-5.824 0.16-2.336 0.224-5.248 0.224-8.736 0-3.872-0.096-7.168-0.288-9.824-0.224-2.688-0.576-4.896-0.992-6.624-0.512-1.76-1.152-3.040-1.984-3.808-0.864-0.8-2.048-1.216-3.52-1.216s-3.776 0.928-7.008 2.784c-3.232 1.888-7.168 3.872-11.808 6.048s-10.080 4.192-16.224 5.984-12.864 2.688-20.224 2.688c-5.76 0-10.752-0.672-15.008-2.080-4.288-1.408-7.872-3.328-10.72-5.792-2.88-2.464-5.024-5.44-6.4-8.864-1.408-3.456-2.112-7.136-2.112-10.976 0-5.76 1.568-10.72 4.704-14.944 3.136-4.192 7.328-7.936 12.64-11.2 5.28-3.296 11.264-6.336 17.92-9.216s13.472-5.92 20.416-9.088c6.944-3.232 13.76-6.848 20.448-10.944 6.688-4.064 12.64-8.928 17.824-14.592 5.216-5.696 9.44-12.352 12.64-20.032s4.8-16.704 4.8-27.136c0-13.6-2.56-25.568-7.616-35.808-5.056-10.272-11.936-18.88-20.64-25.76s-18.816-12.032-30.432-15.488c-1.472-0.448-3.072-0.64-4.576-0.992v-35.008h-31.52v30.88c-0.416 0-0.768-0.096-1.184-0.096-8.928 0-17.248 0.736-24.928 2.176-7.68 1.472-14.464 3.232-20.32 5.248-5.888 2.048-10.784 4.224-14.72 6.464-3.968 2.24-6.784 4.224-8.512 5.952s-2.976 4.224-3.712 7.488-1.12 8-1.12 14.144c0 4.128 0.128 7.616 0.416 10.4 0.256 2.816 0.704 5.088 1.312 6.848 0.608 1.728 1.408 2.976 2.4 3.712 0.992 0.704 2.176 1.088 3.488 1.088 1.888 0 4.512-1.088 7.936-3.328 3.392-2.176 7.776-4.64 13.12-7.296s11.712-5.088 19.136-7.296c7.392-2.208 16-3.328 25.728-3.328 6.4 0 12.16 0.768 17.216 2.304 5.088 1.536 9.376 3.712 12.928 6.496 3.52 2.816 6.208 6.304 8.096 10.432 1.888 4.16 2.816 8.768 2.816 13.856 0 5.888-1.632 10.944-4.8 15.136-3.2 4.224-7.36 7.936-12.512 11.232-5.152 3.264-10.976 6.336-17.504 9.184-6.56 2.88-13.28 5.92-20.224 9.12s-13.696 6.848-20.224 10.912c-6.528 4.064-12.384 8.928-17.504 14.624-5.12 5.664-9.312 12.384-12.512 20.096-3.2 7.744-4.8 17.024-4.8 27.84 0 12.416 2.304 23.328 6.912 32.704 4.608 9.408 10.816 17.216 18.624 23.424 7.808 6.176 17.024 10.848 27.616 13.92 5.44 1.568 11.072 2.72 16.864 3.488v33.12h31.52v-33.12c1.248-0.16 2.496-0.096 3.744-0.288 6.144-0.928 11.904-2.176 17.248-3.776 5.312-1.6 10.048-3.36 14.176-5.376 4.16-1.984 6.88-3.616 8.256-4.96 1.248-1.184 2.144-2.304 2.624-3.264zM352.576 351.84c0-106.208 71.744-192.32 160.256-192.32h-355.808c1.792 5.056 3.232 10.336 3.232 16 0 26.56-21.536 48.096-48.064 48.096-5.696 0-10.976-1.44-16.032-3.232v262.88c5.056-1.824 10.336-3.232 16.032-3.232 26.56 0 48.064 21.504 48.064 48.064 0 5.696-1.44 10.976-3.232 16.032h355.808c-88.512 0.032-160.256-86.080-160.256-192.288zM224.352 418.592c-26.56 0-48.064-28.672-48.064-64.096s21.536-64.096 48.064-64.096c26.56 0 48.064 28.672 48.064 64.096s-21.504 64.096-48.064 64.096z" />
<glyph unicode="ic_chart_alt" glyph-name="chart-alt, pie" horiz-adv-x="960" d="M465.056 338.496l-338.496 338.496c-168.736-194.752-168.736-482.24 0-676.992l338.496 338.496zM512 384v576c-156.992-9.76-298.496-69.76-412.704-163.264l412.704-412.736zM576.064 831.488v-473.984l-332.256-332.256c74.496-54.752 164.256-89.248 263.52-89.248 250.176 0 452.672 202.496 452.672 452.256 0 226.496-167.264 409.984-383.936 443.232z" />
<glyph unicode="ic_caracteristicas" glyph-name="ic_caracteristicas" horiz-adv-x="916" d="M9.367 953.229l6.771 6.771h777.326l5.309-4.175c11.43-8.993 11.231-6.915 11.231-116.257 0-93.64-0.253-101.102-3.656-107.443-9.262-17.275-32.671-18.516-44.186-2.345-4.058 5.696-4.16 7.954-4.157 92.029v86.19h-704v-920h704v152.192c0 150.909 0.033 152.241 4.157 158.031 11.515 16.172 34.924 14.93 44.186-2.345 3.456-6.444 3.656-15.885 3.656-173.445 0-181.463 0.52-173.012-11.231-182.257l-5.309-4.175h-777.326l-6.771 6.771c-9.887 9.884-9.362-18.34-9.362 505.229s-0.525 495.345 9.362 505.229zM303.004 822.897c16.026 8.223 35.889-1.347 37.148-17.897 1.29-16.983 3.274-14.415-60.649-78.569-83.3-83.602-75.31-81.539-124.749-32.205-39.293 39.212-42.739 46.508-30.359 64.225 11.487 16.433 27.464 12.268 54.118-14.113l21.509-21.289 48.492 48.384c26.67 26.611 51.19 49.769 54.49 51.464zM765.005 678.2c-13.138-8.284-356.57-354.982-357.801-361.201-5.156-26.068-21.199-131.244-21.199-138.972 0-12.042 6.656-20.974 17.884-23.997 6.692-1.8 127.47 15.626 147.116 21.228 7.877 2.245 360.886 357.010 363.003 364.805 3.95 14.554 2.204 16.827-62.533 81.436l-60.621 60.5-9.925-0.008c-6.277-0.005-12.129-1.398-15.923-3.791zM816.527 582.477l35.482-35.523-60.009-59.909-71.992 71.91 29.473 29.522c16.21 16.238 29.944 29.522 30.52 29.522 0.573 0 17.011-15.985 36.526-35.523zM306.004 526.538c8.2 1.505 9.226 1.516 15.869 0.187 13.652-2.729 22.131-18.314 18.035-33.144-1.339-4.849-18.291-23.025-64.435-69.082l-62.615-62.5h-23.588l-33.684 33.475c-40.76 40.507-45.22 50.58-29.394 66.409 14.011 14.008 26.729 10.112 53.243-16.312l20.518-20.447 50.524 50.248c32.282 32.102 52.332 50.578 55.526 51.167zM718.517 484.488l35.474-35.515-223.99-223.972-43-7.165c-37.509-6.249-42.993-6.761-42.97-3.999 0.018 1.738 3.041 21.033 6.72 42.877l6.692 39.711 111.775 111.788c61.473 61.484 112.236 111.788 112.801 111.788 0.563 0 16.988-15.982 36.498-35.512zM306.004 227.791c14.556 5.693 29.75-2.002 33.823-17.132 4.173-15.498 3.085-16.919-64.289-83.955-80.364-79.956-71.311-77.847-121.052-28.209-39.672 39.588-44.065 49.925-27.743 65.257 14.656 13.77 26.616 10.015 53.235-16.714l20.977-21.061 50.025 49.93c27.512 27.461 52.275 50.808 55.025 51.884z" />
<glyph unicode="ic_accesorios" glyph-name="ic_accesorios" horiz-adv-x="710" d="M264.258 171.974c31.174-24.981 49.548-62.968 49.548-103.019 0-68.542-53.471-126.348-121.6-131.716-3.097-0.206-6.813-0.413-10.529-0.413s-7.432 0.206-10.942 0.619c-67.716 5.368-121.187 63.174-121.187 131.51 0 40.052 18.374 78.039 49.548 103.019v480.826c-51.2 29.523-82.581 83.406-82.581 142.865 0 69.781 44.181 132.542 110.039 155.665l22.090 7.845v-146.994h66.065v146.994l22.090-7.845c65.858-23.123 110.039-85.884 110.039-155.665 0-59.458-31.381-113.342-82.581-142.865v-480.826zM181.677 111.484c-23.329 0-42.529-19.2-42.529-42.529s19.2-42.529 42.529-42.529 42.529 19.2 42.529 42.529c0 23.329-19.2 42.529-42.529 42.529zM545.032 877.419h33.032v-329.91h-33.032v329.91zM644.129 547.097v308.645c0 57.394-51.819 104.258-115.613 104.258s-115.613-46.865-115.613-104.258v-308.645c-36.335 0-66.065-29.729-66.065-66.065s29.729-66.065 66.065-66.065h66.065v-312.774l22.090-166.194h55.123l21.884 166.194v312.774h66.065c36.335 0 66.065 29.729 66.065 66.065s-29.729 66.065-66.065 66.065zM478.968 102.194l22.090-166.194-56.981 131.303 34.89 34.89zM556.181-64l21.884 166.194 35.097-34.89-56.981-131.303z" />
</font>
</defs>
</svg>
